<?xml version="1.0" standalone="no"?>
<!DOCTYPE svg PUBLIC "-//W3C//DTD SVG 1.1//EN" "http://www.w3.org/Graphics/SVG/1.1/DTD/svg11.dtd" >
<svg xmlns="http://www.w3.org/2000/svg">
  <metadata>Created by iconfont</metadata>
  <defs>
  <font id="iconfont" horiz-adv-x="1024">
    <font-face
      font-family="iconfont"
      font-weight="400"
      font-stretch="normal"
      units-per-em="1024"
      ascent="896"
      descent="-128"
    />
      <missing-glyph />
      
      <glyph glyph-name="shuangyuanquan" unicode="&#58976;" d="M511.772 768.4c51.837 0 102.074-10.09 149.317-30.164 45.649-19.279 86.698-46.946 121.958-82.201 35.255-35.26 62.922-76.309 82.201-121.953 19.976-47.243 30.164-97.485 30.164-149.321 0-51.837-10.09-102.074-30.164-149.317-19.279-45.649-46.946-86.698-82.201-121.958-35.26-35.255-76.309-62.922-121.958-82.201-47.243-19.976-97.48-30.164-149.317-30.164-51.836 0-102.078 10.09-149.321 30.164-45.644 19.279-86.693 46.946-121.953 82.201-35.255 35.26-62.922 76.309-82.201 121.958-19.976 47.243-30.164 97.48-30.164 149.317 0 51.836 10.09 102.078 30.164 149.321 19.279 45.644 46.946 86.693 82.201 121.953 35.26 35.255 76.309 62.922 121.953 82.201 47.243 19.976 97.485 30.164 149.321 30.164m0 63.922c-247.202 0-447.56-200.358-447.56-447.56S264.57-62.8 511.772-62.8s447.561 200.36 447.561 447.561S758.974 832.322 511.772 832.322z m0 0M509.275 571.036c50.438 0 97.881-19.674 133.54-55.334 35.656-35.655 55.334-83.097 55.334-133.535 0-50.442-19.679-97.884-55.334-133.54-35.66-35.654-83.102-55.333-133.54-55.333-50.442 0-97.884 19.679-133.539 55.333-35.656 35.656-55.334 83.099-55.334 133.54 0 50.438 19.679 97.881 55.334 133.535 35.655 35.66 83 55.334 133.539 55.334m0 63.926c-139.63 0-252.795-113.165-252.795-252.796 0-139.63 113.165-252.795 252.795-252.795 139.632 0 252.796 113.165 252.796 252.795 0 139.632-113.267 252.796-252.796 252.796z m0 0"  horiz-adv-x="1024" />
      
      <glyph glyph-name="rili3" unicode="&#59083;" d="M870.1-70H153.9c-46.2 0-83.9 37.6-83.9 83.9V635.6c0 46.2 37.6 83.9 83.9 83.9H870c46.2 0 83.9-37.6 83.9-83.9v-621.7c0-46.3-37.6-83.9-83.8-83.9zM153.9 659.4c-13.2 0-23.9-10.7-23.9-23.9v-621.7c0-13.2 10.7-23.9 23.9-23.9H870c13.2 0 23.9 10.7 23.9 23.9V635.6c0 13.2-10.7 23.9-23.9 23.9H153.9zM274.3 565c-16.6 0-30 13.4-30 30V777.4c0 16.6 13.4 30 30 30s30-13.4 30-30V595c0-16.6-13.4-30-30-30zM749.7 565c-16.6 0-30 13.4-30 30V777.4c0 16.6 13.4 30 30 30s30-13.4 30-30V595c0-16.6-13.4-30-30-30zM100.1 495.6H924v-60H100.1zM310.1 262h-80.3c-16.6 0-30 13.4-30 30s13.4 30 30 30h80.3c16.6 0 30-13.4 30-30s-13.4-30-30-30zM310.1 112.2h-80.3c-16.6 0-30 13.4-30 30s13.4 30 30 30h80.3c16.6 0 30-13.4 30-30s-13.4-30-30-30zM552.2 262h-80.3c-16.6 0-30 13.4-30 30s13.4 30 30 30h80.3c16.6 0 30-13.4 30-30s-13.5-30-30-30zM552.2 112.2h-80.3c-16.6 0-30 13.4-30 30s13.4 30 30 30h80.3c16.6 0 30-13.4 30-30s-13.5-30-30-30zM793.1 262h-80.3c-16.6 0-30 13.4-30 30s13.4 30 30 30h80.3c16.6 0 30-13.4 30-30s-13.4-30-30-30zM793.1 112.2h-80.3c-16.6 0-30 13.4-30 30s13.4 30 30 30h80.3c16.6 0 30-13.4 30-30s-13.4-30-30-30z"  horiz-adv-x="1024" />
      
      <glyph glyph-name="rili4" unicode="&#58967;" d="M901.026909 757.806545h-144.896v44.590546a34.909091 34.909091 0 0 1-69.818182 0v-44.590546H335.965091v44.590546a34.909091 34.909091 0 0 1-69.818182 0v-44.590546H122.973091C80.802909 757.806545 46.545455 723.502545 46.545455 681.378909v-674.350545c0-42.077091 34.257455-76.381091 76.427636-76.381091h778.100364c42.123636 0 76.427636 34.257455 76.427636 76.381091V681.378909a76.567273 76.567273 0 0 1-76.474182 76.427636z m-778.053818-69.818181h778.100364c3.630545 0 6.609455-2.978909 6.609454-6.609455v-115.525818h-791.272727V681.378909a6.516364 6.516364 0 0 0 6.562909 6.609455z m778.053818-687.476364H122.973091a6.609455 6.609455 0 0 0-6.609455 6.562909V496.034909h791.272728v-489.006545a6.516364 6.516364 0 0 0-6.609455-6.516364z m-279.319273 409.413818v-63.953454a23.272727 23.272727 0 0 0-23.272727-23.272728h-63.953454a23.272727 23.272727 0 0 0-23.272728 23.272728v63.953454a23.272727 23.272727 0 0 0 23.272728 23.272727h63.953454a23.272727 23.272727 0 0 0 23.272727-23.272727z m176.360728 0v-63.953454a23.272727 23.272727 0 0 0-23.272728-23.272728h-64a23.272727 23.272727 0 0 0-23.272727 23.272728v63.953454a23.272727 23.272727 0 0 0 23.272727 23.272727h64a23.272727 23.272727 0 0 0 23.272728-23.272727z m-461.637819-167.703273v-63.953454a23.272727 23.272727 0 0 0-23.272727-23.272727H249.204364a23.272727 23.272727 0 0 0-23.272728 23.272727v63.953454a23.272727 23.272727 0 0 0 23.272728 23.272728h63.953454a23.272727 23.272727 0 0 0 23.272727-23.272728z m176.360728 0v-63.953454a23.272727 23.272727 0 0 0-23.272728-23.272727H425.565091a23.272727 23.272727 0 0 0-23.272727 23.272727v63.953454a23.272727 23.272727 0 0 0 23.272727 23.272728h63.953454a23.272727 23.272727 0 0 0 23.272728-23.272728z"  horiz-adv-x="1024" />
      
      <glyph glyph-name="kache" unicode="&#59293;" d="M968 728c17.67 0 32-14.33 32-32v-560c0-17.67-14.33-32-32-32h-76.6c-14.34-50.23-60.58-87-115.4-87s-101.07 36.77-115.4 87H363.69c-14-50.74-60.49-88-115.69-88s-101.68 37.26-115.69 88H32c-4.42 0-8 3.58-8 8V391.73c0 3.56 1.19 7.01 3.37 9.82l153.77 197.69a15.99 15.99 0 0 0 12.63 6.18h213.92V696c0 17.67 14.33 32 32 32H968zM248 192c-30.93 0-56-25.07-56-56s25.07-56 56-56 56 25.07 56 56-25.07 56-56 56z m528 1c-30.93 0-56-25.07-56-56s25.07-56 56-56 56 25.07 56 56-25.07 56-56 56z m160 471H471.69v-100h0.31v-396h188.04c13.67 51.25 60.4 89 115.96 89s102.29-37.75 115.96-89H936V664zM408 541.4200000000001H217.24L177.25 490H264c4.42 0 8-3.58 8-8v-38c0-4.42-3.58-8-8-8H135.25L88 375.26V168h44.31c14 50.74 60.49 88 115.69 88s101.68-37.26 115.69-88H408V541.4200000000001z"  horiz-adv-x="1024" />
      
      <glyph glyph-name="a-33hangchejiluyi" unicode="&#59283;" d="M512 784c194.4 0 352-157.6 352-352 0-151.376-95.568-280.448-229.648-330.16L666.624 48H704a32 32 0 1 0 0-64h-67.136l-4.768-2.864L630.4-16H393.6l-1.696-2.864-4.784 2.864H320a32 32 0 1 0 0 64h37.36l32.288 53.84C255.568 151.552 160 280.64 160 432c0 194.4 157.6 352 352 352z m58-699.248c-18.88-3.12-38.24-4.752-58-4.752-19.76 0-39.12 1.632-58 4.752L431.968 48h160.048l-22.016 36.752zM544 718.24V688a32 32 0 1 0-64 0v30.24c-144-15.904-256-138-256-286.24 0-159.056 128.944-288 288-288s288 128.944 288 288c0 148.24-112 270.32-256 286.24zM512 592c88.368 0 160-71.632 160-160s-71.632-160-160-160-160 71.632-160 160 71.632 160 160 160z m0-64a96 96 0 1 1 0-192 96 96 0 0 1 0 192z"  horiz-adv-x="1024" />
      
      <glyph glyph-name="you3" unicode="&#59142;" d="M517.319805 64.437073a45.955122 45.955122 0 0 0-32.593171 13.486829 45.980098 45.980098 0 0 0 0 65.161366l243.612098 243.612098-243.612098 243.612097a45.980098 45.980098 0 0 0 0 65.161366 45.980098 45.980098 0 0 0 65.186342 0l276.180292-276.205268a45.980098 45.980098 0 0 0 0-65.161366L549.912976 77.898927c-8.99122-8.966244-20.779707-13.461854-32.593171-13.461854zM233.447024 64.437073a45.980098 45.980098 0 0 0-32.59317 78.62322l243.612097 243.637073-243.612097 243.612097a45.980098 45.980098 0 0 0 0 65.161366 45.980098 45.980098 0 0 0 65.186341 0L542.220488 419.265561a45.980098 45.980098 0 0 0 0-65.161366L266.01522 77.898927c-8.966244-8.966244-20.779707-13.461854-32.568196-13.461854z"  horiz-adv-x="1024" />
      
      <glyph glyph-name="shengchanjiagong" unicode="&#58951;" d="M675.416883 494.705358c-3.065825 18.969027-12.279674 27.291576-31.459502 28.873608-9.134031 0.753153-18.438954 0.713244-27.577079-0.050142-61.628616-5.1503-105.275695 71.876004-69.661569 121.252575 5.666046 7.854898 10.339486 16.555048 14.504342 25.323758 3.453658 7.272637 6.511297 15.256472 2.033309 23.344684-13.113669 23.686469-35.316344 34.917254-60.231803 39.4812-21.790282 3.991917-28.636201-15.172561-37.399795-29.950126-4.41352-7.442506-8.631588-15.065114-13.733792-22.023596-9.224082-12.580526-21.324678-21.10569-36.700877-25.218358-42.768059-11.440563-75.348082 3.327792-98.292654 45.049009-20.837584 37.888935-35.150568 41.657772-72.182996 18.916838-4.146437-2.545986-8.251941-5.214768-12.096503-8.188496-17.691941-13.684674-20.61348-27.053146-10.061147-46.681182 6.144954-11.43033 13.639648-22.231327 18.839067-34.056654 19.516496-44.384883-13.166881-100.838639-61.292971-105.892749-13.934361-1.463328-28.102035-0.575098-42.142819-1.205455-13.329587-0.598634-24.840758-5.242398-29.230742-19.035542-6.390547-20.082384-6.39771-40.609906-0.172939-60.720943 3.478218-11.236925 11.806907-18.080797 23.957645-18.810415 7.541767-0.453325 15.132652-0.083911 22.701025-0.083911 26.312272 0.578168 50.612725-3.367701 69.304436-24.762987 27.582195-31.568996 30.148647-62.664202 7.513114-101.320617-24.150026-41.24231-19.875676-55.193043 23.629163-76.584236 4.828982-2.37407 9.881045-4.338818 14.94334-6.182816 14.187117-5.167696 25.803689-0.87902 34.135448 11.039427 6.488785 9.281387 12.291954 19.159362 17.373693 29.288047 26.063609 51.946093 110.654192 51.971675 136.877437 0.325411 5.130857-10.104125 10.707876-20.151969 17.399275-29.255301 11.211343-15.254425 23.316032-17.933441 42.996257-8.004301 20.260439 10.221806 44.868907 17.706267 45.317115 46.908356 0.122797 7.965415-5.034666 15.252379-9.163707 22.295795-5.196349 8.863878-10.858302 17.549701-15.077394 26.874067-19.790742 43.738154 10.17371 99.012038 57.508785 107.282399 15.135722 2.644223 30.273491 0.533143 45.37135 1.584078 19.386536 1.349741 28.640294 9.029654 31.985482 28.114314C677.767418 466.539878 677.668157 480.779184 675.416883 494.705358zM391.845433 360.093521c-63.817468-0.277316-115.043153 50.191122-115.200742 113.49796-0.158612 63.543222 50.671053 114.175389 114.480334 114.036219 63.067384-0.138146 113.295346-50.301639 113.453958-113.308649C504.737596 411.399023 454.370465 360.36572 391.845433 360.093521zM920.236751 269.310911c-0.874927 9.241478-3.640923 18.030655-7.748475 26.333762-5.768377 11.662621-14.499226 16.726963-27.826765 13.065574-11.412934-3.13541-22.432918-8.287757-33.929764-7.732102-36.33658-0.751107-61.509912 35.723619-51.329039 73.263607 7.642051 28.177759 2.854001 37.20025-23.406083 44.099381-26.562982 6.978948-36.385698 0.920976-42.3659-26.120914-0.467651-2.114151-0.943488-4.226255-1.473561-6.325056-10.818393-42.831504-58.991556-57.127092-91.696422-27.201525-5.186116 4.745071-10.210549 9.66922-15.45397 14.347776-7.385201 6.590092-15.47546 6.715959-24.085558 2.446725-30.788214-15.265682-35.232432-40.269146-10.834766-63.358003 14.116509-13.359262 22.892383-28.138874 19.892049-48.714492-4.063549-27.871791-20.485567-42.401716-46.90631-49.059346-26.683732-6.723122-31.375591-16.32378-23.581068-42.507116 7.749498-26.03291 17.146519-31.477922 43.104727-22.911826 22.172999 7.317663 41.832757 7.018857 60.168358-10.129708 19.352767-18.10024 20.706601-38.97364 14.157441-62.494333-2.550079-9.159614-7.512091-19.682271 0.874927-27.697829 12.759605-12.19474 29.109991-16.211217 46.402843-14.08581 15.388479 1.89107 16.182564 15.350616 19.070334 26.782993 0.928139 3.672646 1.747807 7.380084 2.860141 10.997472 11.995195 38.975686 58.007135 52.118008 88.727811 25.287943 5.699816-4.978385 10.790764-10.661827 16.550954-15.564487 7.208169-6.134721 15.243169-7.449669 24.13263-3.202948 31.462572 15.034415 35.890418 40.686654 10.966773 64.278979-0.785899 0.743944-1.609661 1.450025-2.382257 2.206248-31.705096 31.051203-19.589151 79.994915 22.910802 92.557022 5.184069 1.531889 10.334369 3.198855 15.564487 4.554736C916.659273 246.071627 921.519977 255.754151 920.236751 269.310911zM728.744439 148.865725c-42.499953-0.786922-78.599126 35.096333-78.689177 78.218456-0.090051 43.186591 34.540677 77.952396 78.408791 78.711689 42.272779 0.731664 78.418001-35.245735 78.765925-78.399581C807.574832 184.524876 772.752746 149.6813 728.744439 148.865725z"  horiz-adv-x="1024" />
      
      <glyph glyph-name="chuangxin___" unicode="&#58952;" d="M636.028 660.988a21.736 21.736 0 0 1 8.596-1.688c8.392 0 16.484 4.864 20.024 13.008l56.228 128.708c4.752 10.824-0.404 23.44-11.428 28.004-11.024 4.668-23.868-0.4-28.62-11.22L624.6 688.992c-4.752-10.824 0.404-23.336 11.428-28.004Zm-254.744 11.32c3.44-8.34 11.528-13.404 20.228-13.404 2.728 0 5.46 0.496 8.088 1.488 11.124 4.368 16.588 16.784 12.136 27.808L368.744 818.196c-4.448 10.924-17.088 16.288-28.316 11.92-11.12-4.372-16.584-16.788-12.136-27.808l52.992-130ZM90.24 546.78l131.064-55.216a21.736 21.736 0 0 1 8.596-1.688c8.392 0 16.48 4.868 20.024 12.912 4.752 10.824-0.404 23.436-11.428 28.104l-131.064 55.12c-11.024 4.664-23.864-0.4-28.62-11.224-4.752-10.828 0.404-23.44 11.428-28.008Zm131.972-254.432l-132.48-52.04c-11.12-4.368-16.58-16.784-12.132-27.804 3.44-8.344 11.528-13.408 20.224-13.408 2.732 0 5.464 0.496 8.092 1.488l132.376 52.04c11.124 4.368 16.588 16.784 12.136 27.808-4.448 10.92-17.092 16.284-28.216 11.916Zm734.5-54.52l-131.164 55.116c-11.024 4.668-23.868-0.4-28.52-11.224-4.752-10.824 0.404-23.436 11.428-28.004l131.164-55.12a21.736 21.736 0 0 1 8.6-1.684c8.492 0 16.48 4.864 20.02 12.908 4.652 10.824-0.404 23.34-11.528 28.008Zm-139.96 252.84c2.728 0 5.46 0.5 8.088 1.492l132.48 52.04c11.12 4.368 16.584 16.784 12.132 27.804-4.448 10.924-17.088 16.288-28.316 11.92l-132.48-52.04c-11.12-4.368-16.584-16.784-12.132-27.808 3.336-8.34 11.528-13.404 20.224-13.404ZM638.252 396.128c0 9.036-7.38 16.88-15.876 16.88-18.912 0-25.584-16.98-27.812-31.18-0.1-0.8-0.2-2.088-0.3-3.876h28.112c7.988 0 15.88 9.04 15.88 18.176Zm-215.1 18.172c-7.988 0-15.88-9.04-15.88-18.172 0-9.136 7.892-18.176 15.88-18.176h28.216c-0.1 2.088-0.304 3.676-0.404 4.568-1.92 11.92-7.992 31.78-27.812 31.78Zm73.12-79.052c1.616-69.12 2.624-183.92 2.624-230.2 0-0.496 0-0.892-0.1-1.392h47.836c0 0.4-0.104 0.696-0.104 0.996 0 46.376 1.012 161.576 2.632 230.6h-52.892ZM522.968 647.28h-0.708c-69.172-0.196-134-26.016-182.64-72.992-49.048-47.272-76.048-110.728-76.048-178.656 0-76.072 33.372-146.284 91.52-192.664 8.9-7.052 23.664-29.396 23.968-99.408h76.352c0 0.496-0.1 0.892-0.1 1.388 0 66.736-1.216 169.92-2.632 230.3h-29.628c-32.16 0-59.36 27.908-59.36 60.88 0 32.968 27.2 60.876 59.36 60.876 37.112 0 64.216-26.02 70.788-67.928 0.304-1.888 0.608-5.76 0.912-11.12h55.92c0.308 4.96 0.508 8.536 0.812 10.424 6.572 41.512 33.68 67.332 70.792 67.332 32.16 0 59.36-27.308 59.36-59.584 0-32.972-27.2-60.88-59.36-60.88h-29.632c-1.416-60.08-2.628-163.76-2.628-230.6 0-0.396 0-0.692-0.104-0.992h76.052c0.3 71.308 15.168 93.852 24.068 100.9 58.96 47.076 91.52 114.904 91.52 191.076 0 67.828-27 131.288-76.048 178.656-48.544 46.976-113.364 72.896-182.536 72.996ZM379.06-15.412000000000034c0-8.84 7.28-15.988 16.28-15.988h254.44c9 0 16.28 7.152 16.28 15.988V60.960000000000036h-287v-76.372Z"  horiz-adv-x="1024" />
      
      <glyph glyph-name="jiadian" unicode="&#59287;" d="M676.5 790.7h-329c-71.8 0-130.3-58.4-130.3-130.3v-489.6c0-67 50.8-122.3 115.9-129.5v-40.1c0-16.6 13.4-30 30-30s30 13.4 30 30v39.3h237.7v-39.3c0-16.6 13.4-30 30-30s30 13.4 30 30v40.1c65.1 7.2 115.9 62.5 115.9 129.5V660.5c0 71.8-58.4 130.2-130.2 130.2z m-329-60h328.9c38.7 0 70.3-31.5 70.3-70.3v-214.8H277.3V660.5c0 38.7 31.5 70.2 70.2 70.2z m329-630.1h-329c-38.7 0-70.3 31.5-70.3 70.3V385.7h469.4v-214.8c0.1-38.8-31.4-70.3-70.1-70.3zM365.7 534.5c16.6 0 30 13.4 30 30v71c0 16.6-13.4 30-30 30s-30-13.4-30-30v-71c0-16.6 13.4-30 30-30zM365.7 347.6c-16.6 0-30-13.4-30-30v-71c0-16.6 13.4-30 30-30s30 13.4 30 30v71c0 16.5-13.4 30-30 30z"  horiz-adv-x="1024" />
      
      <glyph glyph-name="zhihuijiaotong" unicode="&#59288;" d="M882.9 549.3H785l-23.5 68.6c-17.5 51-65.6 85.3-119.5 85.3H382c-54 0-102.1-34.3-119.6-85.5L239 549.3h-97.8c-16.6 0-30-13.4-30-30s13.4-30 30-30h60.5c-33.1-19.2-55.5-55.1-55.5-96.2v-159.3c0-61.3 49.8-111.1 111.1-111.1h1.3v-40.1c0-16.6 13.4-30 30-30s30 13.4 30 30v40.1h391.7v-40.1c0-16.6 13.4-30 30-30s30 13.4 30 30v40.1c59.7 1.9 107.6 51 107.6 111.1V393.2c0 41-22.3 76.9-55.5 96.2h60.5c16.6 0 30 13.4 30 30s-13.4 29.9-30 29.9z m-563.8 49c9.2 26.8 34.4 44.9 62.8 44.9h260c28.3 0 53.6-18 62.8-44.8l32.3-94.1H286.9l32.2 94z m498.8-364.5c0-28.2-22.9-51.1-51.1-51.1H257.2c-28.2 0-51.1 22.9-51.1 51.1V393.2c0 28.2 22.9 51.1 51.1 51.1h509.5c28.2 0 51.1-22.9 51.1-51.1v-159.4zM601.4 343.5H422.6c-16.6 0-30-13.4-30-30s13.4-30 30-30h178.8c16.6 0 30 13.4 30 30s-13.4 30-30 30zM722.8 313.5m-44.1 0a44.1 44.1 0 1 1 88.2 0 44.1 44.1 0 1 1-88.2 0ZM303.6 313.5m-44.1 0a44.1 44.1 0 1 1 88.2 0 44.1 44.1 0 1 1-88.2 0Z"  horiz-adv-x="1024" />
      
      <glyph glyph-name="yiliao" unicode="&#59289;" d="M873.6 512.5c-16.6 39.3-40.4 74.6-70.7 104.9-30.3 30.3-65.6 54.1-104.9 70.7-40.7 17.2-84 26-128.5 26-66.7 0-130.9-19.8-185.8-57.2-51.2-34.9-91.3-83-116.2-139.4H132.9c-16.6 0-30-13.4-30-30s13.4-30 30-30h248.6c40.5 0 73.5-33 73.5-73.5s-33-73.5-73.5-73.5H132.9c-16.6 0-30-13.4-30-30s13.4-30 30-30h248.6c43.5 0 82.2 20.9 106.6 53.2 20.7-21 49.5-34 81.3-34 63 0 114.3 51.3 114.3 114.3s-51.3 114.3-114.3 114.3c-31.8 0-60.5-13-81.3-34-24.4 32.3-63.1 53.2-106.6 53.2h-47.1c47.6 84 136.5 136.6 235 136.6 149 0 270.2-121.2 270.2-270.2S718.4 113.7 569.4 113.7c-46.8 0-92.1 12-132.1 34.4h116.2c61.9 0 120.1 24.1 163.9 67.9 43.8 43.8 67.9 102 67.9 163.9S761.2 500 717.4 543.8c-43.8 43.8-102 67.9-163.9 67.9-16.6 0-30-13.4-30-30s13.4-30 30-30c94.7 0 171.7-77 171.7-171.7s-77-171.7-171.7-171.7H132.9c-16.6 0-30-13.4-30-30s13.4-30 30-30h206.9c1.4-2.4 3.2-4.7 5.4-6.7 61.2-56.6 140.8-87.7 224.1-87.7 44.6 0 87.8 8.7 128.5 26 39.3 16.6 74.6 40.4 104.9 70.7 30.3 30.3 54.1 65.6 70.7 104.9 17.2 40.7 26 84 26 128.5s-8.6 87.8-25.8 128.5z m-304.2-74.2c30 0 54.3-24.4 54.3-54.3 0-30-24.4-54.3-54.3-54.3S515 354 515 384c0 30 24.4 54.3 54.4 54.3z"  horiz-adv-x="1024" />
      
      <glyph glyph-name="yuanlingongju" unicode="&#59290;" d="M514.4-16c-85.4 0-165.7 33.3-226.1 93.7-60.4 60.4-93.7 140.7-93.7 226.1V674.7c0 60.3 49 109.3 109.3 109.3H725c60.3 0 109.3-49 109.3-109.3v-370.9c0-85.4-33.3-165.7-93.7-226.1S599.8-16 514.4-16zM303.9 724c-27.2 0-49.3-22.1-49.3-49.3v-370.9c0-143.3 116.6-259.8 259.8-259.8 143.3 0 259.8 116.6 259.8 259.8V674.7c0 27.2-22.1 49.3-49.3 49.3h-421zM514.4 112.3c-108 0-195.9 87.9-195.9 195.9S406.4 504 514.4 504s195.9-87.9 195.9-195.9-87.9-195.8-195.9-195.8z m0 331.7c-74.9 0-135.9-61-135.9-135.9s61-135.9 135.9-135.9 135.9 61 135.9 135.9S589.3 444 514.4 444z"  horiz-adv-x="1024" />
      
      <glyph glyph-name="diandonggongju" unicode="&#59291;" d="M901.4 612.9H782.9c-12.7 39.6-49.9 68.4-93.7 68.4h-94.6c-15.6 26.1-44.1 43.6-76.7 43.6h-289c-49.2 0-89.2-40-89.2-89.2v-105.5c0-49.2 40-89.2 89.2-89.2h8.2v-317c0-44.6 36.3-80.9 80.9-80.9h89.6c25.2 0 48.6 11.4 64 31.4 15.4 20 20.7 45.4 14.3 69.8L409 440.8h109c32.5 0 61.1 17.5 76.7 43.6h94.6c43.8 0 81 28.8 93.7 68.4h118.5c16.6 0 30 13.4 30 30s-13.5 30.1-30.1 30.1zM427.9 129.3c2.2-8.6-1.4-15-3.7-18.1-2.3-3-7.6-8.1-16.5-8.1h-89.6c-11.5 0-20.9 9.4-20.9 20.9V440.9h49.9l80.8-311.6zM518 500.9H229c-16.1 0-29.2 13.1-29.2 29.2V635.6c0 16.1 13.1 29.2 29.2 29.2h289c16.1 0 29.2-13.1 29.2-29.2v-105.5c0-16.1-13.1-29.2-29.2-29.2z m171.2 43.6h-82v76.8h82c21.2 0 38.4-17.2 38.4-38.4s-17.2-38.4-38.4-38.4z"  horiz-adv-x="1024" />
      
      <glyph glyph-name="jiqiren" unicode="&#59292;" d="M665.5 528.3H542v115h24.4c16.6 0 30 13.4 30 30s-13.4 30-30 30H460.6c-16.6 0-30-13.4-30-30s13.4-30 30-30H482v-115H358.5c-86.5 0-156.8-70.3-156.8-156.8v-126.6c0-86.5 70.3-156.8 156.8-156.8h307.1c86.5 0 156.8 70.3 156.8 156.8V371.5c-0.1 86.4-70.4 156.8-156.9 156.8z m96.8-283.5c0-53.4-43.4-96.8-96.8-96.8h-307c-53.4 0-96.8 43.4-96.8 96.8V371.5c0 53.4 43.4 96.8 96.8 96.8h307.1c53.4 0 96.8-43.4 96.8-96.8v-126.7zM907.3 408.5c-16.6 0-30-13.4-30-30v-144.2c0-16.6 13.4-30 30-30s30 13.4 30 30V378.5c0 16.6-13.4 30-30 30zM116.7 408.5c-16.6 0-30-13.4-30-30v-144.2c0-16.6 13.4-30 30-30s30 13.4 30 30V378.5c0 16.6-13.5 30-30 30zM341.835214 293.430183a56.5 56.5 0 1 1 109.975562 25.968749 56.5 56.5 0 1 1-109.975562-25.968749ZM629.3 306.4m-56.5 0a56.5 56.5 0 1 1 113 0 56.5 56.5 0 1 1-113 0Z"  horiz-adv-x="1024" />
      
      <glyph glyph-name="taiqiugan" unicode="&#59280;" d="M890.6 658.3c-0.4 28.4-11.6 55.2-31.8 75.3-20.1 20.1-46.9 31.4-75.3 31.8-28.4 0.4-55.5-10.2-76.1-29.8l-540-513c-25.1-23.9-39.2-56.1-39.7-90.8-0.4-34.7 12.8-67.3 37.3-91.8 24.1-24.1 56.1-37.4 90.1-37.4h1.7c34.7 0.4 66.9 14.5 90.8 39.7l513 540c19.8 20.6 30.4 47.6 30 76zM304.3 83.6c-12.6-13.3-29.7-20.8-48.1-21-18.4-0.2-35.6 6.8-48.6 19.8s-20 30.2-19.8 48.6c0.2 18.4 7.7 35.4 21 48.1L620.2 570l72.9-77.1-388.8-409.3z m513 540l-82.8-87.1-70.8 74.8 85 80.8c9.4 9 21.4 13.4 33.4 13.4 12.4 0 24.7-4.8 34.3-14.3 18.8-18.7 19.1-48.4 0.9-67.6zM896.2 131.7c-0.4 34.7-14.5 66.9-39.7 90.8L712.1 359.7l-41.3-43.5L815.2 179c13.3-12.6 20.8-29.7 21-48.1 0.2-18.4-6.8-35.6-19.8-48.6s-30.3-20-48.6-19.8c-18.4 0.2-35.4 7.7-48.1 21l-135 142.1-43.5-41.3 135-142.1c23.9-25.1 56.1-39.2 90.8-39.7h1.7c34 0 66 13.2 90.1 37.4 24.6 24.6 37.8 57.2 37.4 91.8zM301.9 436.2l43.5 41.3-138.7 146c-18.2 19.2-17.9 48.9 0.9 67.6 18.7 18.7 48.4 19.1 67.6 0.9l153-145.3 41.3 43.5-153 145.3c-20.6 19.6-47.6 30.2-76.1 29.8-28.4-0.4-55.2-11.6-75.3-31.8-20.1-20.1-31.4-46.9-31.8-75.3s10.2-55.5 29.8-76.1l138.8-145.9z"  horiz-adv-x="1024" />
      
      <glyph glyph-name="taiqiuganh" unicode="&#59281;" d="M686.5 439C559.8 439 457 336.2 457 209.5S559.8-20 686.5-20 916 82.8 916 209.5 813.3 439 686.5 439z m-16.1-250c-53.8 53.8-61 133.7-16.1 178.6 44.9 44.9 124.8 37.6 178.6-16.1 53.8-53.8 61-133.7 16.1-178.6-44.9-44.9-124.8-37.7-178.6 16.1zM600.9 607.6l67.9 71.4c24.1 25.4 23.6 65.4-1.2 90.2-24.8 24.8-64.8 25.3-90.2 1.2l-71.4-68 94.9-94.8zM561.1 565.7l-97 97L132.9 348c-32.7-31.1-33.4-83.1-1.5-115 31.9-31.9 83.9-31.3 115 1.5l314.7 331.2z"  horiz-adv-x="1024" />
      
      <glyph glyph-name="erweima" unicode="&#59279;" d="M347.3 413.5h-97.5c-74.9 0-135.7 60.9-135.7 135.7v97.5c0 74.9 60.9 135.7 135.7 135.7h97.5c74.9 0 135.7-60.9 135.7-135.7v-97.5c0-74.8-60.9-135.7-135.7-135.7z m-97.5 309c-41.8 0-75.7-34-75.7-75.7v-97.5c0-41.8 34-75.7 75.7-75.7h97.5c41.8 0 75.7 34 75.7 75.7v97.5c0 41.8-34 75.7-75.7 75.7h-97.5zM774.2 413.5h-97.5c-74.9 0-135.7 60.9-135.7 135.7v97.5c0 74.9 60.9 135.7 135.7 135.7h97.5c74.9 0 135.7-60.9 135.7-135.7v-97.5c0-74.8-60.8-135.7-135.7-135.7z m-97.5 309c-41.8 0-75.7-34-75.7-75.7v-97.5c0-41.8 34-75.7 75.7-75.7h97.5c41.8 0 75.7 34 75.7 75.7v97.5c0 41.8-34 75.7-75.7 75.7h-97.5zM347.3-14.5h-97.5c-74.9 0-135.7 60.9-135.7 135.7v97.5c0 74.9 60.9 135.7 135.7 135.7h97.5c74.9 0 135.7-60.9 135.7-135.7v-97.5c0-74.8-60.9-135.7-135.7-135.7z m-97.5 309c-41.8 0-75.7-34-75.7-75.7v-97.5c0-41.8 34-75.7 75.7-75.7h97.5c41.8 0 75.7 34 75.7 75.7v97.5c0 41.8-34 75.7-75.7 75.7h-97.5zM616.8 230.2c-16.6 0-30 13.4-30 30v39c0 16.6 13.4 30 30 30s30-13.4 30-30v-39c0-16.6-13.5-30-30-30zM616.8 10.8c-16.6 0-30 13.4-30 30V167.7c0 16.6 13.4 30 30 30s30-13.4 30-30v-126.8c0-16.6-13.5-30.1-30-30.1zM725.5 10.8c-16.6 0-30 13.4-30 30v44c0 16.6 13.4 30 30 30s30-13.4 30-30v-44c0-16.5-13.5-30-30-30zM725.5 147.2c-16.6 0-30 13.4-30 30v122c0 16.6 13.4 30 30 30s30-13.4 30-30v-122c0-16.6-13.5-30-30-30zM834.1 192.4c-16.6 0-30 13.4-30 30v76.8c0 16.6 13.4 30 30 30s30-13.4 30-30v-76.8c0-16.6-13.4-30-30-30zM834.1 10.8c-16.6 0-30 13.4-30 30v91.4c0 16.6 13.4 30 30 30s30-13.4 30-30v-91.4c0-16.5-13.4-30-30-30z"  horiz-adv-x="1024" />
      
      <glyph glyph-name="gerenxinxierweima" unicode="&#58950;" d="M694.1 225.6c14.8 0 26.9-12 26.9-26.9v-107.5c0-14.8-12-26.9-26.9-26.9-14.8 0-26.9 12-26.9 26.9V198.7c0 14.9 12.1 26.9 26.9 26.9z m107.5 107.5c14.8 0 26.9-12 26.9-26.9v-215.1c0-14.8-12-26.9-26.9-26.9-14.8 0-26.9 12-26.9 26.9V306.2c0.1 14.9 12.1 26.9 26.9 26.9z m-215.9 0c14.8 0 26.9-12 26.9-26.9v-215.1c0-14.8-12-26.9-26.9-26.9-14.8 0-26.9 12-26.9 26.9V306.2c0 14.9 12 26.9 26.9 26.9z m27.8 376.4h161.3c29.7 0 53.8-24.1 53.8-53.8v-161.3c0-29.7-24.1-53.8-53.8-53.8H613.5c-29.7 0-53.8 24.1-53.8 53.8V655.7c0 29.7 24.1 53.8 53.8 53.8zM236.2 333.1h161.3c29.7 0 53.8-24.1 53.8-53.8V118c0-29.7-24.1-53.8-53.8-53.8H236.2c-29.7 0-53.8 24.1-53.8 53.8V279.4c0.1 29.7 24.1 53.7 53.8 53.7z m0 376.4h161.3c29.7 0 53.8-24.1 53.8-53.8v-161.3c0-29.7-24.1-53.8-53.8-53.8H236.2c-29.7 0-53.8 24.1-53.8 53.8V655.7c0.1 29.7 24.1 53.8 53.8 53.8z"  horiz-adv-x="1024" />
      
      <glyph glyph-name="xinxingcailiao" unicode="&#59278;" d="M856.7 372.5l-129.8 74.9c-2.9 1.7-5.9 3.2-9 4.4 0.4 3.3 0.7 6.7 0.7 10v150c0 27.3-14.7 52.8-38.4 66.4l-129.8 74.9c-23.7 13.7-53.1 13.7-76.7 0l-129.8-74.9c-23.7-13.7-38.4-39.1-38.4-66.4v-149.9c0-3.4 0.2-6.7 0.7-10-3.1-1.3-6.1-2.8-9-4.4l-129.8-74.9c-23.7-13.7-38.4-39.1-38.4-66.4v-149.9c0-27.3 14.7-52.8 38.4-66.4L297.2 15c11.8-6.8 25.1-10.2 38.4-10.2s26.5 3.4 38.4 10.2l129.8 74.9c2.9 1.7 5.7 3.6 8.4 5.6 2.6-2 5.4-3.9 8.4-5.6L650.4 15c11.8-6.8 25.1-10.2 38.4-10.2 13.3 0 26.5 3.4 38.4 10.2L857 89.9c23.7 13.7 38.4 39.1 38.4 66.4V306.1c-0.3 27.3-15 52.7-38.7 66.4zM365.5 611.8c0 6 3.2 11.5 8.4 14.5l129.8 74.9c2.6 1.5 5.5 2.2 8.4 2.2s5.8-0.7 8.4-2.2l129.8-74.9c5.2-3 8.4-8.5 8.4-14.5v-149.9c0-6-3.2-11.5-8.4-14.5l-129.8-74.9c-5.2-3-11.6-3-16.7 0L374 447.4c-5.2 3-8.4 8.5-8.4 14.5V611.8z m108.1-470.1l-129.8-74.9c-5.2-3-11.6-3-16.7 0l-129.8 74.9c-5.2 3-8.4 8.5-8.4 14.5V306.1c0 6 3.2 11.5 8.4 14.5l129.8 74.9c2.6 1.5 5.5 2.2 8.4 2.2 2.9 0 5.8-0.7 8.4-2.2l129.8-74.9c5.2-3 8.4-8.5 8.4-14.5v-149.9c-0.1-6-3.3-11.5-8.5-14.5z m361.5 14.5c0-6-3.2-11.5-8.4-14.5l-129.8-74.9c-5.2-3-11.6-3-16.7 0l-129.8 74.9c-5.2 3-8.4 8.5-8.4 14.5V306.1c0 6 3.2 11.5 8.4 14.5l129.8 74.9c2.6 1.5 5.5 2.2 8.4 2.2s5.8-0.7 8.4-2.2l129.8-74.9c5.2-3 8.4-8.5 8.4-14.5v-149.9z"  horiz-adv-x="1024" />
      
      <glyph glyph-name="lajitong" unicode="&#59060;" d="M650.8 62H373.2c-62.5 0-113.4 46.5-113.4 103.6V643.8c0 16.6 13.4 30 30 30s30-13.4 30-30v-478.1c0-24.1 24-43.6 53.4-43.6h277.7c29.5 0 53.4 19.6 53.4 43.6V643.8c0 16.6 13.4 30 30 30s30-13.4 30-30v-478.1c0-57.2-50.9-103.7-113.5-103.7zM871.1 635.6H152.9c-16.6 0-30 13.4-30 30s13.4 30 30 30h718.2c16.6 0 30-13.4 30-30s-13.4-30-30-30zM644.5 719.3h-265c-16.6 0-30 13.4-30 30s13.4 30 30 30h265c16.6 0 30-13.4 30-30s-13.4-30-30-30zM422.2 224.2c-16.6 0-30 13.4-30 30V445.9c0 16.6 13.4 30 30 30s30-13.4 30-30v-191.8c0-16.5-13.4-29.9-30-29.9zM601.8 224.2c-16.6 0-30 13.4-30 30V445.9c0 16.6 13.4 30 30 30s30-13.4 30-30v-191.8c0-16.5-13.5-29.9-30-29.9z"  horiz-adv-x="1024" />
      
      <glyph glyph-name="leqihanglixiang" unicode="&#59275;" d="M729.9 650.5h-30.3v46.3c0 61.1-49.7 110.8-110.8 110.8H435.2c-61.1 0-110.8-49.7-110.8-110.8v-46.3h-30.3c-57 0-103.3-46.4-103.3-103.3v-421.1c0-57 46.4-103.3 103.3-103.3h30.3v-32.3c0-16.6 13.4-30 30-30s30 13.4 30 30v32.3h255.1v-32.3c0-16.6 13.4-30 30-30s30 13.4 30 30v32.3h30.3c57 0 103.3 46.4 103.3 103.3v421c0.1 57-46.2 103.4-103.2 103.4z m-345.5 46.3c0 28 22.8 50.8 50.8 50.8h153.5c28 0 50.8-22.8 50.8-50.8v-46.3H384.4v46.3zM250.8 547.1c0 23.9 19.4 43.3 43.3 43.3H729.8c23.9 0 43.3-19.4 43.3-43.3V305c0-23.9-19.4-43.3-43.3-43.3H294.1c-23.9 0-43.3 19.4-43.3 43.3V547.1z m479.1-464.4H294.1c-23.9 0-43.3 19.4-43.3 43.3v85.1c13.2-6.1 27.9-9.5 43.3-9.5h435.7c15.5 0 30.2 3.4 43.3 9.5V126c0.1-23.8-19.3-43.3-43.2-43.3z"  horiz-adv-x="1024" />
      
      <glyph glyph-name="chongwuhanglixiang" unicode="&#59276;" d="M705.5 617.5v61.7c0 61.1-49.7 110.8-110.8 110.8H414.1c-61.1 0-110.8-49.7-110.8-110.8v-61.7c-82-12.1-145.1-83-145.1-168.3V243c0-85.3 63.1-156.2 145.1-168.3v-39.5c0-16.6 13.4-30 30-30s30 13.4 30 30v37.7h282.2v-37.7c0-16.6 13.4-30 30-30s30 13.4 30 30v39.5c82 12.1 145.1 83 145.1 168.3V449.2c0.1 85.3-63.1 156.2-145.1 168.3z m-342.2 61.6c0 28 22.8 50.8 50.8 50.8h180.6c28 0 50.8-22.8 50.8-50.8v-59.8H363.3v59.8zM790.7 243c0-60.7-49.4-110.1-110.1-110.1H328.3c-60.7 0-110.1 49.4-110.1 110.1V449.2c0 60.7 49.4 110.1 110.1 110.1h352.3c60.7 0 110.1-49.4 110.1-110.1V243zM616.5 444.4c-16.6 0-30-13.4-30-30v-142.2c0-16.6 13.4-30 30-30s30 13.4 30 30V414.4c0 16.6-13.4 30-30 30zM405.1 444.4c-16.6 0-30-13.4-30-30v-142.2c0-16.6 13.4-30 30-30s30 13.4 30 30V414.4c0 16.6-13.5 30-30 30z"  horiz-adv-x="1024" />
      
      <glyph glyph-name="gongjuhanglixiang" unicode="&#59277;" d="M747.3 619.3h-41.8v59.8c0 61.1-49.7 110.8-110.8 110.8H414.1c-61.1 0-110.8-49.7-110.8-110.8v-59.8h-41.8c-57 0-103.3-46.4-103.3-103.3v-339.7c0-57 46.4-103.3 103.3-103.3h41.8v-37.7c0-16.6 13.4-30 30-30s30 13.4 30 30V73h282.2v-37.7c0-16.6 13.4-30 30-30s30 13.4 30 30V73h41.8c57 0 103.3 46.4 103.3 103.3V516c0.1 57-46.3 103.3-103.3 103.3z m-384 59.8c0 28 22.8 50.8 50.8 50.8h180.6c28 0 50.8-22.8 50.8-50.8v-59.8H363.3v59.8zM261.5 559.3h485.8c23.9 0 43.3-19.4 43.3-43.3v-94.4H646.5v4.6c0 16.6-13.4 30-30 30s-30-13.4-30-30v-4.6H435.1v4.6c0 16.6-13.4 30-30 30s-30-13.4-30-30v-4.6H218.2V516c0 23.9 19.4 43.3 43.3 43.3z m485.8-426.4H261.5c-23.9 0-43.3 19.4-43.3 43.3V361.6h156.9v-28.3c0-16.6 13.4-30 30-30s30 13.4 30 30v28.3h151.4v-28.3c0-16.6 13.4-30 30-30s30 13.4 30 30v28.3h144.2v-185.3c0-23.9-19.5-43.4-43.4-43.4z"  horiz-adv-x="1024" />
      
      <glyph glyph-name="pcmopian" unicode="&#59274;" d="M762.2-2.5H243.7c-33.5 0-64.5 15.1-85.2 41.4-20.7 26.3-28 60.1-20.1 92.6l96.7 396.9c8.9 36.7 35.7 65.6 71.6 77.3l399.7 130.9c32.5 10.7 67.3 5.6 95.5-13.9 28.1-19.5 45.1-50.3 46.5-84.5l22.1-527.8c1.2-29.8-9.4-58-30.1-79.5-20.6-21.5-48.4-33.4-78.2-33.4z m-21.9 684.7c-5.1 0-10.2-0.8-15.2-2.4l-399.7-131c-16-5.2-28-18.2-31.9-34.5l-96.7-396.9c-3.5-14.5-0.3-29.6 9-41.3 9.2-11.8 23.1-18.5 38-18.5h518.5c13.3 0 25.7 5.3 34.9 14.9 9.2 9.6 14 22.2 13.4 35.5l-22.1 527.8c-0.6 15.3-8.2 29-20.8 37.7-8.2 5.7-17.7 8.7-27.4 8.7z"  horiz-adv-x="1024" />
      
      <glyph glyph-name="xiangxia1" unicode="&#58964;" d="M715.1 473L511.7 269.6 308.3 473c-12.5 12.5-32.8 12.5-45.3 0s-12.5-32.8 0-45.3L485.7 205c0.9-1.2 2-2.4 3.1-3.6 6.3-6.3 14.6-9.4 22.9-9.4 8.3-0.1 16.6 3.1 22.9 9.4 1.1 1.1 2.2 2.3 3.1 3.6l222.7 222.7c12.5 12.5 12.5 32.8 0 45.3s-32.8 12.5-45.3 0z"  horiz-adv-x="1024" />
      
      <glyph glyph-name="shebeijiaofu" unicode="&#59082;" d="M584.96 688.725333c0-90.752-73.834667-164.586667-163.712-164.586666-90.752 0-164.586667 73.834667-164.586667 164.586666S330.496 853.333333 421.248 853.333333c89.877333-0.896 163.712-73.856 163.712-164.608zM371.413333 336.426667l188.650667 79.189333c11.562667 4.437333 30.250667 6.229333 42.688 3.541333l4.458667-0.874666c-9.792 39.146667-43.605333 46.250667-122.773334 46.250666H308.266667c-64.064 0-98.773333 1.792-120.106667-41.813333 0-0.874667-18.688-48.938667-38.272-109.44a1485.845333 1485.845333 0 0 1-27.584-95.189333c-8-32.042667-14.229333-62.293333-15.125333-90.752v0.874666-3.541333c0-16.021333 4.458667-31.146667 10.666666-42.709333 11.584-23.146667 27.605333-37.376 43.605334-49.834667 28.48-21.333333 63.168-36.48 98.773333-50.709333 108.544-40.938667 240.213333-64.96 242.005333-65.834667 3.562667-0.896 8-0.896 11.562667-0.896 29.354667 0 54.272 20.48 60.501333 49.834667 6.229333 32.917333-16 64.938667-48.938666 72.064 0 0-0.896 0-3.562667 0.874666-17.792 3.562667-101.418667 20.48-177.941333 45.376-38.250667 12.458667-73.856 26.709333-96.085334 40.042667-7.125333 4.458667-13.354667 8.021333-16.917333 11.562667 1.792 14.250667 5.333333 33.813333 10.666667 55.168 8.021333 32.917333 19.584 70.293333 30.272 102.314666-9.792-60.501333-22.250667-142.357333-24.021334-150.357333 1.770667-1.770667 4.437333-2.666667 7.104-4.437333 20.48-11.584 54.272-25.813333 93.44-38.272 0.874667 0 1.770667-0.896 3.541334-0.896-0.874667 3.562667-1.770667 6.229333-1.770667 9.813333v199.274667c0.896 10.666667 9.792 24.021333 21.333333 29.376z m496.490667-237.568h-3.562667s-0.896 0-0.896-0.896l-188.608-79.168c-11.562667-5.333333-31.146667-6.229333-42.709333-3.562667l-12.458667 2.666667v-0.896c10.666667-3.562667 20.48-7.104 32.021334-10.666667 47.146667-13.354667 98.773333-20.48 139.690666-24.917333 40.938667-4.458667 70.293333-6.229333 71.189334-6.229334h2.666666c32.021333 0 59.605333 25.813333 61.397334 58.730667a61.802667 61.802667 0 0 1-58.730667 64.938667z m-17.792 225.109333l-169.941333-71.189333c-8-3.541333-14.229333-13.333333-14.229334-22.229334v-177.066666c0-8.896 6.229333-13.333333 14.229334-9.792l169.941333 71.189333c8 3.562667 14.229333 13.333333 14.229333 22.250667v177.066666c0 8.874667-6.229333 13.333333-14.229333 9.770667z m-229.546667-76.522667l-236.672 56.96c-8.896 1.770667-15.146667-3.584-15.146666-12.48v-177.92c0-8.917333 7.125333-17.813333 15.146666-19.584l236.672-56.96c8.896-1.770667 15.125333 3.562667 15.125334 12.458667v177.962667c0 8.896-7.125333 17.792-15.146667 19.562666z m211.754667 99.648l-234.005333 56.064c-8.896 1.770667-22.250667 0.874667-30.250667-2.666666l-167.253333-70.293334c-8.021333-3.562667-8.021333-8.021333 0.853333-9.792l234.026667-56.042666c8.896-1.792 22.229333-0.896 30.250666 2.666666l167.253334 70.272c8.021333 3.562667 8.021333 8.021333-0.874667 9.813334z"  horiz-adv-x="1024" />
      
      <glyph glyph-name="douyin2" unicode="&#58949;" d="M937.4 472.1c-84 0-165.7 27.3-232.9 77.8v-352.3c0-179.9-138.6-325.6-309.6-325.6S85.3 17.7 85.3 197.6c0 179.9 138.6 325.6 309.6 325.6 17.1 0 33.7-1.5 49.9-4.3v-186.6c-15.5 6.1-32 9.2-48.6 9.2-76.3 0-138.2-65-138.2-145.3 0-80.2 61.9-145.3 138.2-145.3 76.2 0 138.1 65.1 138.1 145.3V896H707c0-134.5 103.7-243.5 231.6-243.5v-180.3l-1.2-0.1"  horiz-adv-x="1024" />
      
      <glyph glyph-name="shipinhao" unicode="&#59195;" d="M143.392 764.256c81.824 24.576 180.032-70.464 336.064-325.248 17.536-28.608 32.544-52 33.376-52.032 0.832 0 16.64 24.768 35.072 55.04C703.072 696.576 801.344 790.112 884.8 762.72c53.024-17.408 75.392-68.608 75.2-172.16-0.384-201.44-97.216-517.12-176.256-574.592-65.088-47.296-162.336 12.256-252.992 154.976-8.992 14.208-17.216 25.856-18.208 25.888-0.992 0-8.992-11.552-17.76-25.728-47.776-77.248-106.368-137.12-156.608-160.032-24.416-11.136-66.88-12.672-84.8-3.04-48.832 26.24-103.808 140.16-146.4 303.488C38.912 572.48 52.16 736.8 143.392 764.256zM827.296 660.48c-51.808-40.256-118.592-129.92-216.384-290.56l-46.176-75.776 15.808-28.288c39.712-71.2 85.6-131.072 122.624-160 25.088-19.648 33.376-15.52 55.296 27.648 68.928 135.52 127.68 413.184 108.48 512.992-5.76 30.048-14.816 33.248-39.648 13.984z m-660.544 8.544c-18.496-18.272-13.696-136.704 10.304-254.912 28.96-142.72 89.92-308.736 116.736-318.048 26.08-9.056 97.792 72.96 154.112 176.256l12.32 22.624-39.52 64.864C314.784 533.568 245.728 626.4 194.912 663.296c-15.616 11.328-21.312 12.48-28.16 5.728z"  horiz-adv-x="1024" />
      
      <glyph glyph-name="jiahao" unicode="&#58947;" d="M512 776.1219075500001c10.23870874 0 18.96459937-3.60900903 26.22216797-10.81713891 7.23284888-7.20812988 10.87152099-15.96862769 10.87152099-26.2666626v-296.5715332h296.59130884c10.26342773 0 18.99426246-3.70788575 26.21722388-10.91601563 7.2822876-7.21307397 10.88635254-15.96862769 10.88635254-26.16778516 0-10.29803491-3.60900903-18.94976782-10.88635254-26.2666626-7.21801734-7.20812988-15.95379615-10.81713891-26.21722388-10.81713891H549.09368896v-296.67040992c0-10.30297828-3.63867211-18.95471191-10.87152099-26.1628418C530.96459937 38.14882406000004 522.23870874 34.54475910999997 512 34.54475910999997s-18.95471191 3.60900903-26.22216797 10.92095971c-7.23284888 7.20812988-10.87152099 15.85986352-10.87152099 26.1628418V368.29897054H178.3150022c-10.24859619 0-18.984375 3.60900903-26.20239233 10.81713891C144.83032227 386.4330035 141.21142578 395.08473714 141.21142578 405.38277205c0 10.19915748 3.62384057 18.95471191 10.89624 26.16778516 7.21801734 7.20812988 15.95874023 10.91601563 26.20239305 10.91601563h296.59625221V739.04305013c0 10.30297828 3.63867211 19.05853271 10.87152099 26.2666626C493.04528809 772.5178426 501.76129126 776.1219075500001 512 776.1219075500001"  horiz-adv-x="1024" />
      
      <glyph glyph-name="daosanjiao" unicode="&#58946;" d="M851.2 556.8L512 211.20000000000005 172.8 556.8l678.4 0z"  horiz-adv-x="1024" />
      
      <glyph glyph-name="sangedian" unicode="&#59028;" d="M133.9 362.7m-95.9 0a95.9 95.9 0 1 1 191.8 0 95.9 95.9 0 1 1-191.8 0ZM890.1 362.7m-95.9 0a95.9 95.9 0 1 1 191.8 0 95.9 95.9 0 1 1-191.8 0ZM512 362.7m-165.4 0a165.4 165.4 0 1 1 330.8 0 165.4 165.4 0 1 1-330.8 0Z"  horiz-adv-x="1024" />
      
      <glyph glyph-name="yijianxiufu" unicode="&#58914;" d="M508.896 226.733l277.885 278.53 64.132 18.269 107.658 145.427-71.456 71.561-145.151-107.808-15.667-66.676-301.681-303.344-9.662 9.607c-14.278 14.361-43.27 7.619-57.009-6.061l-231.699-231.985c-13.627-13.693-17.057-38.642-2.799-53.014l77.276-77.385c14.278-14.338 41.804-13.356 55.422 0.307l231.699 231.985c13.627 13.722 20.96 43.229 6.697 57.577l-7.139 7.139 21.587 25.85M631.451 255.989l13.722-13.722c23.776-23.978 16.523-69.737-2.919-98.777l205.232-205.567c7.206-7.21 17.258-11.738 28.279-11.738s21.029 4.468 28.279 11.738l75.505 75.629c7.206 7.21 11.726 17.29 11.726 28.369s-4.468 21.074-11.726 28.369l-270.938 271.36-35.499-35.548-41.614-50.049zM845.771 74.371c7.863 7.863 18.684 12.763 30.693 12.763 23.978 0 43.441-19.414 43.441-43.441 0-23.978-19.414-43.441-43.441-43.441-12.035 0-22.822 4.886-30.693 12.763-7.863 7.888-12.674 18.72-12.674 30.713 0 12.035 4.885 22.836 12.674 30.713zM458.64 426.769l18.643-18.59 82.278 82.598-71.533 71.666c26.902 79.378 9.695 170.732-52.933 233.559-67.445 67.646-167.894 82.358-247.989 49.185l118.979-119.147c32.345-32.454 29.827-87.98-2.563-120.481-32.318-32.345-87.797-34.835-120.114-2.46l-118.979 119.147c-33.204-80.172-18.684-181.074 48.812-248.763 66.772-66.969 165.309-82.822 247.648-48.221l0.007-0.007c28.922 19.201 73.838 25.669 97.612 1.741z"  horiz-adv-x="1024" />
      
      <glyph glyph-name="yuancheng" unicode="&#59081;" d="M1009.792 280.704l-206.08-198.272a49.408 49.408 0 0 0-30.976-13.376c-1.088-0.256-2.24-0.64-3.456-0.64a11.968 11.968 0 0 0-12.16 11.648v97.28H463.296c-25.984 0-46.976 20.16-46.976 44.992V404.608c0 24.768 21.056 44.992 46.976 44.992h293.76v97.92c0 6.4 5.504 11.712 12.224 11.712 1.152 0 2.112-0.32 3.2-0.64a49.216 49.216 0 0 0 31.168-13.44l206.08-198.272a45.504 45.504 0 0 0 0-66.176zM437.824 475.072h169.856V545.664c0 24.896-21.056 44.992-46.976 44.992h-293.76V688a11.968 11.968 0 0 1-12.224 11.648c-1.28 0-2.368-0.32-3.456-0.64a49.408 49.408 0 0 1-30.912-13.44L14.272 487.36a45.568 45.568 0 0 1 0-66.176l206.08-198.272c8.704-8.384 19.84-12.672 31.232-13.44 1.024-0.256 1.984-0.64 3.136-0.64 6.72 0 12.16 5.248 12.16 11.712v97.92h123.968V430.08c0 24.832 21.12 45.056 46.976 45.056z"  horiz-adv-x="1024" />
      
      <glyph glyph-name="jurassic_clock" unicode="&#59033;" d="M788 600.9c-35.8 35.8-77.6 63.8-124.1 83.5-48.2 20.3-99.3 30.6-152 30.6s-103.8-10.3-152-30.6c-46.5-19.6-88.2-47.7-124.1-83.5-35.8-35.8-64-77.4-83.7-123.8-20.4-48-30.7-99-30.7-151.6 0-52.6 10.3-103.6 30.7-151.6 19.7-46.4 47.8-88 83.7-123.8 35.8-35.8 77.6-63.8 124.1-83.5 48.2-20.3 99.3-30.6 152-30.6s103.8 10.3 152 30.6c46.5 19.6 88.2 47.7 124.1 83.5 35.8 35.8 64 77.4 83.7 123.8 20.4 48 30.7 99 30.7 151.6 0 52.6-10.3 103.6-30.7 151.6-19.7 46.4-47.8 88-83.7 123.8zM686.8 232.5H447.9V473h64v-176.6h175v-63.9zM810.7 832c-67.2 0-124-44.3-142.8-105.2 88.3-34.2 162.6-96.5 211.6-176C927.3 575.6 960 625.5 960 683c0 82.3-66.8 149-149.3 149zM356.1 726.8C337.4 787.7 280.5 832 213.3 832 130.9 832 64 765.3 64 683c0-57.5 32.7-107.4 80.5-132.2 49 79.5 123.3 141.8 211.6 176z"  horiz-adv-x="1024" />
      
      <glyph glyph-name="shouyedx" unicode="&#59273;" d="M163.9 293.3c-16.6 0-30 13.4-30 30v176L512 796.8l152.1-119.7c13-10.2 15.3-29.1 5-42.1-10.2-13-29.1-15.3-42.1-5l-115 90.5-155.5-122.4-162.6-127.9v-146.9c0-16.6-13.5-30-30-30zM890.1-20.6H584.5V120.6c0 40-32.5 72.5-72.5 72.5s-72.5-32.5-72.5-72.5v-141.2H133.9V178.3c0 16.6 13.4 30 30 30s30-13.4 30-30v-138.9h185.6v81.2c0 73.1 59.4 132.5 132.5 132.5s132.5-59.5 132.5-132.5v-81.2h185.6V470.2l-100.6 79.1c-13 10.2-15.3 29.1-5 42.1 10.2 13 29.1 15.3 42.1 5l123.5-97.2v-519.8z"  horiz-adv-x="1024" />
      
      <glyph glyph-name="shouyewz" unicode="&#59272;" d="M890.1-20.6H584.5V120.6c0 40-32.5 72.5-72.5 72.5s-72.5-32.5-72.5-72.5v-141.2H133.9V499.3L512 796.8l378.1-297.4v-520z m-245.6 60h185.6V470.2L512 720.4 356.5 598.1 193.9 470.2v-430.8h185.6v81.2c0 73.1 59.4 132.5 132.5 132.5s132.5-59.5 132.5-132.5v-81.2z"  horiz-adv-x="1024" />
      
      <glyph glyph-name="a-3Dceliang" unicode="&#59269;" d="M753-31.5H271c-49.5 0-89.8 40.3-89.8 89.8v618c0 49.5 40.3 89.8 89.8 89.8h482c49.5 0 89.8-40.3 89.8-89.8v-618.1c0-49.4-40.3-89.7-89.8-89.7zM271 706.1c-16.4 0-29.8-13.4-29.8-29.8v-618.1c0-16.4 13.4-29.8 29.8-29.8h482c16.4 0 29.8 13.4 29.8 29.8V676.3c0 16.4-13.4 29.8-29.8 29.8H271zM543.1 419H391.9c-49.5 0-89.8 40.3-89.8 89.8v39.1c0 49.5 40.3 89.8 89.8 89.8h151.2c49.5 0 89.8-40.3 89.8-89.8v-39.1c-0.1-49.5-40.3-89.8-89.8-89.8zM391.9 577.6c-16.4 0-29.8-13.4-29.8-29.8v-39.1c0-16.4 13.4-29.8 29.8-29.8h151.2c16.4 0 29.8 13.4 29.8 29.8v39.1c0 16.4-13.4 29.8-29.8 29.8H391.9zM585.5 182.1h-236c-16.6 0-30 13.4-30 30s13.4 30 30 30h236.1c16.6 0 30-13.4 30-30s-13.5-30-30.1-30z"  horiz-adv-x="1024" />
      
      <glyph glyph-name="xiangji" unicode="&#59270;" d="M823.4 53.2H200.6c-41.9 0-76 34.1-76 76v422c0 41.9 34.1 76 76 76h124.1l12.4 36.1c10.5 30.7 39.4 51.4 71.9 51.4h206.5c32.7 0 61.7-20.9 72.1-51.9l11.9-35.6h123.9c41.9 0 76-34.1 76-76v-422c0-41.9-34.1-76-76-76zM200.6 567.3c-8.8 0-16-7.2-16-16v-422c0-8.8 7.2-16 16-16h622.8c8.8 0 16 7.2 16 16v422c0 8.8-7.2 16-16 16H656.3l-25.6 76.6c-2.2 6.5-8.3 10.9-15.2 10.9H409c-6.8 0-12.9-4.3-15.1-10.8l-26.3-76.7h-167zM512 174.7c-93.1 0-168.8 75.7-168.8 168.8 0 93.1 75.7 168.8 168.8 168.8 93.1 0 168.8-75.7 168.8-168.8 0-93.1-75.7-168.8-168.8-168.8z m0 277.5c-60 0-108.8-48.8-108.8-108.8S452 234.6 512 234.6s108.8 48.8 108.8 108.8S572 452.2 512 452.2z"  horiz-adv-x="1024" />
      
      <glyph glyph-name="kongzhiqi" unicode="&#59271;" d="M816.2 637.3c-12.6 26.4-39.7 43.5-68.9 43.5H277c-29.2 0-56.3-17-68.9-43.4l-89.3-186.7v-287.2c0-42.1 34.3-76.4 76.4-76.4h633.7c42.1 0 76.4 34.3 76.4 76.4V450.7l-89.1 186.6z m-554-25.8c2.7 5.7 8.5 9.3 14.8 9.3h470.3c6.3 0 12.1-3.7 14.8-9.3l65.6-137.6H196.4l65.8 137.6z m566.7-464.3H195.1c-9 0-16.4 7.3-16.4 16.4V413.9h666.4v-250.4c0.1-9-7.2-16.3-16.2-16.3zM457.5 309.6H276.2c-16.6 0-30-13.4-30-30s13.4-30 30-30h181.4c16.6 0 30 13.4 30 30s-13.5 30-30.1 30zM743.3 309.6H561.9c-16.6 0-30-13.4-30-30s13.4-30 30-30h181.4c16.6 0 30 13.4 30 30s-13.5 30-30 30z"  horiz-adv-x="1024" />
      
      <glyph glyph-name="wulianwangjishuyingyong" unicode="&#59479;" d="M427.2-56.2c-35.6 7.3-82.5 22.7-104.4 34.3-12.4 6.5-9.2 7.2 37.9 8.2 171.4 3.9 388.3 94.4 539.9 225.2 46 39.7 46.8 37.3 10.4-33.9-77.7-151.4-229.7-242.8-401-241.1-27.2 0.2-64.5 3.5-82.8 7.3zM252.9 69.7c-68.9 9.3-76 13.4-109.6 63.3-16.6 24.7-29.3 45.8-28.2 46.9 1.1 1.1 14.7-1.5 30.2-5.9 40.7-11.3 153.3-11 215.2 0.7 111.7 21 252.5 80.1 356.4 149.4 81.3 54.3 157.2 129.6 201.1 199.4l15.5 24.7 5.5-16.9c12.3-38.2 21-85.6 21-115.4 0.1-30.6-0.7-32.6-26.4-63-53.5-63.5-155.2-139-258.9-192.2-62.4-32-172.6-70.8-234.7-82.5-52.9-10.1-144.6-14.2-187.1-8.5z m-92 208.1c-18.2 4.1-45.9 14-61.5 21.8L71 313.9l-4.4 42.7c-2.4 23.5-3.3 43.8-2.1 45 1.3 1.3 12.5-1.4 24.9-6 30.8-11.4 141.4-15.6 193.1-7.4 57.9 9.2 145.5 38.7 200.3 67.4 100.9 52.9 167.4 106.1 222.4 177.9 23.4 30.6 60.1 99.8 60.1 113.3 0 11.1 6.8 7.6 42.4-22.1 40.4-33.6 42.4-42.5 21.8-97.2-55.5-147.8-236.1-285-448.6-340.4-62.1-16.3-169.5-20.8-220-9.3z m43.4 226.9c-60.4 7.7-110.2 24.5-110.1 37.3 0.2 15.3 44.1 90.8 51.7 88.9 76.6-19 117.8-20.3 177.6-6 97.8 23.5 180.1 86.2 224.4 171l18.7 35.7L590 828c44-6.6 88.2-22.9 88.1-32.4-0.3-25.6-46.4-98.5-91.3-144.6-33.2-34.1-102.2-81-153.2-104.2-63.5-28.8-174-49.2-229.3-42.1z m46.1 190.8c-28.1 6.7-29.3 20.1-4.4 47.7 37.7 41.9 139.9 79.5 180 66.3 22.1-7.3 21.5-19.8-2.3-46.2-35.8-39.7-132.5-77.5-173.3-67.8z"  horiz-adv-x="1024" />
      
      <glyph glyph-name="yewu" unicode="&#59019;" d="M853.333333 277.333333h-128c0-47.146667-38.186667-85.333333-85.333333-85.333333H384c-25.6 0-48.426667 11.52-64 29.44-3.2 3.626667-6.186667 7.68-8.746667 11.946667 0 0.213333-0.213333 0.426667-0.213333 0.426666-2.346667 4.053333-4.48 8.32-6.4 12.586667-0.64 1.493333-0.853333 2.773333-1.28 4.266667-1.066667 3.413333-2.346667 6.826667-2.986667 10.24-1.066667 5.546667-1.706667 10.88-1.706666 16.426666H106.666667v-213.333333c0-47.146667 38.186667-85.333333 85.333333-85.333333h640c47.146667 0 85.333333 38.186667 85.333333 85.333333V277.333333h-64zM661.333333 277.333333v64h192V704c0 47.146667-38.186667 85.333333-85.333333 85.333333H469.333333c-47.146667 0-85.333333-38.186667-85.333333-85.333333v-448h256c11.733333 0 21.333333 9.6 21.333333 21.333333z m-160 384h234.666667c17.706667 0 32-14.293333 32-32s-14.293333-32-32-32h-234.666667c-17.706667 0-32 14.293333-32 32s14.293333 32 32 32zM469.333333 501.333333c0 17.706667 14.293333 32 32 32h234.666667c17.706667 0 32-14.293333 32-32s-14.293333-32-32-32h-234.666667c-17.706667 0-32 14.293333-32 32zM320 341.333333V661.333333h-64c-47.146667 0-85.333333-38.186667-85.333333-85.333333v-234.666667h149.333333z"  horiz-adv-x="1024" />
      
      <glyph glyph-name="VR" unicode="&#59282;" d="M1365.327872 554.668032a204.799181 204.799181 0 0 0 51.199795-159.060697l-38.22918-341.331968a204.799181 204.799181 0 0 0-204.799181-182.271271H1023.995904a178.175287 178.175287 0 0 0-116.052869 56.661107 68.266394 68.266394 0 0 1-47.103812 19.11459h-83.967664a68.266394 68.266394 0 0 1-47.103811-19.11459A178.175287 178.175287 0 0 0 614.397542-127.995904H463.528813a204.799181 204.799181 0 0 0-204.799181 182.271271l-38.229181 341.331968a204.799181 204.799181 0 0 0 204.799181 227.327091h787.794182A204.799181 204.799181 0 0 0 1365.327872 554.668032zM682.663936 759.467213h273.065574a68.266394 68.266394 0 0 1 0 136.532787h-273.065574a68.266394 68.266394 0 0 1 0-136.532787z m887.463117-341.331968a68.266394 68.266394 0 0 1-68.266394-68.266394v-273.065574a68.266394 68.266394 0 0 1 136.532787 0V349.868851a68.266394 68.266394 0 0 1-68.266393 68.266394zM68.266394 418.135245a68.266394 68.266394 0 0 1-68.266394-68.266394v-273.065574a68.266394 68.266394 0 0 1 136.532787 0V349.868851a68.266394 68.266394 0 0 1-68.266393 68.266394z"  horiz-adv-x="1638" />
      
      <glyph glyph-name="dashujufenxi" unicode="&#59268;" d="M586.0352 74.5984a1062.0416 1062.0416 0 0 0-328.2944-58.624c-131.584 0-228.352 36.096-252.0064 104.96-23.6544 68.9152 32.8704 158.0032 139.8784 237.9776v-95.0784C87.552 210.2784 68.608 165.376 75.776 143.9744c8.9088-26.7264 69.888-55.3984 181.9136-55.3984a999.0144 999.0144 0 0 1 304.4864 55.3984 925.5424 925.5424 0 0 1 310.784 168.5504c62.5152 55.808 82.944 102.7584 75.52 124.416-5.1712 15.0016-26.7264 30.8224-63.8976 41.5744v75.264c70.144-15.5648 118.9888-47.104 134.8096-93.44 40.704-119.4496-153.1392-292.1472-432.7424-386.048l-0.6656 0.3072zM569.2416 184.9344V810.7008c0 40.96 15.5136 85.2992 56.4736 85.2992h144.2304c40.96 0 83.6096-15.9232 83.6096-56.9344v-483.4816l-9.6256-14.5408a804.352 804.352 0 0 0-274.8416-156.3648l0.1536 0.256zM199.424 568.576a56.7296 56.7296 0 0 0 56.9344 56.6784H427.008c31.3344 0 56.7808-25.344 56.8832-56.832v-408.5248s-45.9776-17.4592-145.7152-27.392a1017.9584 1017.9584 0 0 0-138.752-5.7344v441.856z m58.624-583.168a1051.1872 1051.1872 0 0 1 225.8432 29.184v-99.584a43.008 43.008 0 0 0-12.4416-30.208 42.752 42.752 0 0 0-30.208-12.4416H241.9712a43.008 43.008 0 0 0-30.208 12.4416 42.752 42.752 0 0 0-12.4416 30.208v71.0656c19.5584-1.3824 39.1168-1.3824 58.5728 0v-0.7168h0.1536z m595.3536 171.008v-227.5328c-0.256-31.232-25.6-56.3712-56.7808-56.5248h-170.5984c-40.96 0-56.5248 15.9744-56.5248 56.9344V35.84s67.0208 17.408 137.472 46.08c54.9888 22.3232 111.104 54.0672 146.432 74.496z"  horiz-adv-x="1075" />
      
      <glyph glyph-name="dashujufenxixing" unicode="&#58945;" d="M259.085 233.497l235.649-135.89v271.78l-235.649 135.89v-271.78z m505.83 0v271.78l-235.649-135.89v-271.78l235.649 135.89z m-17.586 301.835L512 671.222l-235.33-135.89L512 399.442l235.33 135.89zM96.337 423.742a30.056 30.056 0 0 1 30.056 30.056V608.233l132.053 76.418a30.056 30.056 0 1 1-30.056 51.479L80.03 651.398a30.056 30.056 0 0 1-15.667-26.218v-171.382a30.056 30.056 0 0 1 31.974-30.055z m162.109-339.564l-133.332 76.418V315.031a30.056 30.056 0 0 1-60.112 0V143.97a30.056 30.056 0 0 1 15.028-26.22l148.36-85.05a30.056 30.056 0 0 1 30.056 52.118z m386.886-69.703L512-63.222l-133.332 77.057a30.056 30.056 0 0 1-30.056-52.118l148.36-85.69a30.056 30.056 0 0 1 30.056 0l148.36 85.69a30.056 30.056 0 0 1-30.056 52.118z m282.331 330.612a30.056 30.056 0 0 1-30.056-30.056v-154.435L764.275 83.54a30.056 30.056 0 0 1 31.335-50.84l148.36 85.691a30.056 30.056 0 0 1 15.028 26.22V315.03a30.056 30.056 0 0 1-31.335 30.057z m16.307 306.311L795.61 736.13a30.056 30.056 0 1 1-30.056-52.118l133.332-75.779v-153.795a30.056 30.056 0 0 1 60.112 0V625.18a30.056 30.056 0 0 1-15.028 26.218zM378.668 754.355L512 832.052l133.332-77.058a30.056 30.056 0 0 1 30.056 52.118L527.028 891.843a31.974 31.974 0 0 1-30.056 0l-148.36-85.37a30.056 30.056 0 0 1 30.056-52.118z"  horiz-adv-x="1024" />
      
      <glyph glyph-name="rengongzhineng" unicode="&#59198;" d="M473.6 485.376h32.768l-16.384 36.352-16.384-36.352zM768 111.104c0 11.776-5.12 24.576-7.68 39.424a368.128 368.128 0 0 0-5.632 51.2 164.864 164.864 0 0 0 3.584 46.08c6.656 13.312 15.36 28.16 24.064 43.52a414.208 414.208 0 0 1 75.776 263.68 282.112 282.112 0 0 1-130.56 196.608 358.4 358.4 0 0 1-176.64 51.2 329.216 329.216 0 0 1-164.864-30.208 307.2 307.2 0 0 1-156.16-189.952 86.016 86.016 0 0 1-7.168-32.768 69.12 69.12 0 0 1 5.632-26.624v-6.144a48.128 48.128 0 0 0 5.12-22.016 41.472 41.472 0 0 0-11.264-27.136 121.344 121.344 0 0 0-13.824-14.336L204.8 450.048l-12.8-11.776a78.848 78.848 0 0 1-24.064-40.96 51.2 51.2 0 0 1 11.264-43.008 71.68 71.68 0 0 1 31.232-19.456h4.096v-130.56a56.32 56.32 0 0 1 16.896-42.496 63.488 63.488 0 0 1 37.376-16.896 325.632 325.632 0 0 1 76.288 0h6.656a14.848 14.848 0 0 0 15.872-6.656 88.064 88.064 0 0 0 11.264-38.912 347.136 347.136 0 0 0-7.68-105.472 28.672 28.672 0 0 1 28.16-36.352h370.176a30.208 30.208 0 0 1 11.264 2.56 28.672 28.672 0 0 1 15.36 38.4 486.912 486.912 0 0 0-28.16 112.64z m-168.96 239.104a29.696 29.696 0 0 0-38.4 15.872l-27.648 60.928H446.976l-27.648-60.928a29.184 29.184 0 0 0-51.2 24.064l97.28 214.528a31.232 31.232 0 0 0 14.848 14.336 29.184 29.184 0 0 0 38.4-14.336L614.4 390.144a29.696 29.696 0 0 0-15.36-39.936z m95.232 28.16a28.672 28.672 0 0 0-29.184-29.184 29.184 29.184 0 0 0-29.184 29.184V611.84A29.184 29.184 0 0 0 665.6 640a28.672 28.672 0 0 0 29.184-29.184z"  horiz-adv-x="1024" />
      
      <glyph glyph-name="Gc_83_face-Print" unicode="&#58913;" d="M864 688h-48V768c0 61.44-50.56 112-112 112H320c-61.44 0-112-50.56-112-112v-80H160C80.64 688 16 623.36 16 544V192c0-79.36 64.64-144 144-144h48V192c0 75.52 36.48 112 112 112h384c75.52 0 112-36.48 112-112v-144h48c79.36 0 144 64.64 144 144V544c0 79.36-64.64 144-144 144zM304 768c0 8.96 7.04 16 16 16h384c8.96 0 16-7.04 16-16v-80h-416V768zM768 400h-128c-26.24 0-48 21.76-48 48s21.76 48 48 48h128c26.24 0 48-21.76 48-48s-21.76-48-48-48zM272 240m48 0l384 0q48 0 48-48l0-256q0-48-48-48l-384 0q-48 0-48 48l0 256q0 48 48 48Z"  horiz-adv-x="1024" />
      
      <glyph glyph-name="xizhuang" unicode="&#58912;" d="M411.748252 894.977023q-17.390609-23.528472-30.689311-42.965035-11.252747-17.390609-21.994006-32.223776t-12.787213-17.902098q-10.22977-17.390609-2.045954-27.62038 4.091908-4.091908 8.695305-9.718282t11.764236-10.741259q6.137862-5.114885 9.206793-12.787213t0-14.833167-7.160839-15.856144-8.183816-14.833167q-8.183816-17.390609 5.114885-36.827173 7.160839-10.22977 25.062937-38.361638t36.315684-56.775225q8.183816-14.321678 23.016983-36.827173t29.154845-42.965035q16.367632-24.551449 34.781219-51.148851 15.344655 22.505495 29.666334 43.988012 12.275724 18.413586 25.062937 37.338661t20.971029 31.200799q7.160839 12.275724 18.413586 30.689311l24.551449 34.781219q11.252747 18.413586 20.45954 32.735265t12.275724 19.436563q11.252747 19.436563 4.091908 32.735265-3.068931 5.114885-6.137862 10.741259t-7.160839 13.81019q-7.160839 16.367632-2.045954 24.551449 4.091908 4.091908 11.252747 11.764236t15.344655 18.925075q8.183816 10.22977 2.557443 19.436563t-14.833167 23.528472q-5.114885 6.137862-13.81019 18.925075t-17.902098 26.085914q-11.252747 15.344655-22.505495 31.712288 5.114885 0 9.206793-1.022977 7.160839-2.045954 18.413586-3.068931 4.091908-2.045954 12.787213-7.160839t17.902098-11.252747 18.925075-12.275724 17.902098-9.206793q14.321678-6.137862 28.131868-9.206793t34.26973-8.183816 35.804196-19.436563 21.482517-45.010989q3.068931-15.344655 9.206793-40.919081t14.833167-56.263736 17.902098-64.447552 18.413586-66.493506 25.062937-72.11988 31.712288-74.677323 29.154845-61.89011 17.390609-33.758242q8.183816-14.321678 11.764236-26.085914t-2.557443-18.925075q-5.114885-7.160839-18.925075-15.344655t-25.062937-13.298701-26.085914-3.58042-25.062937 18.925075q-5.114885 8.183816-15.856144 27.62038t-24.03996 45.010989-28.131868 54.217782-27.108891 56.263736q-13.298701 26.597403-24.03996 61.378621t-18.925075 64.447552q-10.22977 34.781219-17.390609 70.585415-3.068931-27.62038-6.137862-56.263736-2.045954-25.574426-4.603397-56.263736t-4.603397-60.355644q-2.045954-30.689311 0.511489-75.7003t7.160839-88.999001 9.718282-79.792208 7.160839-48.07992q5.114885-23.528472 5.114885-37.338661t-25.574426-24.03996q-12.275724-5.114885-30.177822-9.718282t-37.85015-7.672328-38.873127-5.626374-32.223776-3.58042q-27.62038-2.045954-34.781219 8.183816t-9.206793 21.482517q-2.045954 6.137862-5.114885 26.085914t-7.160839 44.4995-7.672328 48.07992-5.626374 35.804196-5.114885 29.154845-5.114885 33.246753q-3.068931 18.413586-6.137862 38.873127-3.068931-16.367632-6.137862-33.758242-3.068931-14.321678-6.137862-31.712288t-5.114885-34.781219q-2.045954-16.367632-5.626374-39.384615t-7.672328-46.033966-7.160839-42.453546-5.114885-28.643357-3.58042-15.344655-5.626374-9.206793-11.764236-4.091908-21.994006 0-33.246753 3.58042-38.873127 6.649351-38.361638 8.695305-30.689311 8.695305-17.902098 10.741259-7.160839 14.833167 0.511489 17.390609 5.114885 18.413586 7.672328 42.965035 9.206793 75.7003 7.160839 84.907093 1.534466 71.608392q-2.045954 28.643357-4.603397 62.401598t-4.603397 63.424575q-3.068931 33.758242-6.137862 69.562438-9.206793-35.804196-19.436563-69.562438-8.183816-29.666334-17.902098-62.913087t-17.902098-58.821179-24.551449-58.30969-32.735265-62.913087-29.154845-52.683317-15.856144-27.62038q-6.137862-9.206793-19.436563-12.787213t-25.574426 1.534466q-13.298701 5.114885-23.528472 11.764236t-20.45954 14.833167-8.695305 18.925075 8.695305 25.062937q4.091908 7.160839 18.413586 38.361638t31.200799 68.027972 31.200799 71.096903 19.436563 46.545455q4.091908 12.275724 12.275724 42.453546t17.390609 64.959041 17.390609 67.004995 12.275724 48.591409q8.183816 32.735265 14.833167 50.637363t19.948052 30.177822q14.321678 11.252747 39.384615 16.367632t49.614386 13.298701 36.827173 19.436563 26.597403 18.413586q19.436563 8.183816 26.597403 8.183816 4.091908 0 8.183816-1.022977zM415.84016 862.241758q6.137862-31.712288 13.298701-62.401598 5.114885-26.597403 12.275724-56.263736t13.298701-54.217782 15.344655-58.30969 18.413586-64.447552q11.252747-35.804196 22.505495-72.631369 13.298701 46.033966 24.551449 86.953047 10.22977 34.781219 19.436563 69.050949t13.298701 49.614386q4.091908 14.321678 9.718282 41.430569t11.764236 53.706294q6.137862 30.689311 14.321678 64.447552 9.206793-12.275724 17.390609-23.528472l14.321678-20.45954q7.160839-10.22977 11.252747-15.344655 8.183816-11.252747 5.626374-15.344655t-7.672328-9.206793l-16.367632-16.367632q-4.091908-5.114885-7.672328-11.764236t0.511489-14.833167l7.160839-13.298701q2.045954-5.114885 7.160839-17.390609 6.137862-13.298701 4.091908-20.971029t-6.137862-14.833167q-3.068931-4.091908-8.183816-12.787213t-11.764236-18.925075-13.81019-20.971029-12.275724-18.925075-17.902098-28.131868-26.085914-40.407592q-15.344655-24.551449-32.735265-51.148851-15.344655 23.528472-27.62038 45.010989-11.252747 17.390609-22.505495 35.804196t-17.390609 27.62038-13.298701 20.971029-14.833167 23.528472-14.321678 22.505495-10.741259 16.879121q-10.22977 17.390609-6.137862 29.666334 2.045954 5.114885 6.649351 14.833167t9.718282 19.948052 1.534466 17.390609-6.649351 10.22977q-3.068931 4.091908-6.137862 7.160839t-10.22977 11.252747q-7.160839 7.160839-6.649351 11.764236t5.626374 14.833167q2.045954 3.068931 7.672328 12.275724t12.787213 19.436563q8.183816 11.252747 17.390609 26.597403z"  horiz-adv-x="1024" />
      
      <glyph glyph-name="huiyitaoluntantaojiaotan" unicode="&#58990;" d="M345.89 610c78.908 0 144.058-65.103 144.058-143.991 0-52.665-29.028-99.194-71.81-124.308 51.404-16.813 95.552-53.696 126.743-106.55 22.513 30.443 50.192 53.856 81.171 68.301-35.402 22.896-59.072 62.725-59.072 107.556C566.98 481.115 624.876 539 695.03 539c70.14 0 128.052-57.87 128.052-127.992 0-43.141-21.913-81.65-55.113-104.898 72.892-30.878 128.492-110.904 143.694-215.66a66.204 66.204 0 0 0-28.987-61.631C838.147-1.061 777.242-16 699.964-16c-65.622 0-121.13 12.305-166.522 36.914C486.043-3.696 425.187-16 350.876-16c-83.684 0-152.75 17.824-207.2 53.471-22.063 14.445-34.123 40.036-31.26 66.199l0.092 0.793c17.376 119.253 82.473 203.312 166.332 234.339-45.607 24.307-77.008 72.439-77.008 127.207 0 78.87 65.133 143.991 144.058 143.991z m446.18 174c22.101 0 40.017-17.909 40.017-40v-128c0-22.091-17.916-40-40.016-40H625.639l-63.661-50v50h-10.004c-22.1 0-40.017 17.909-40.017 40V744c0 22.091 17.916 40 40.017 40H792.07z m-205.082-73c-15.47 0-28.012-12.536-28.012-28s12.541-28 28.012-28c15.47 0 28.011 12.536 28.011 28s-12.541 28-28.011 28z m85.034 0c-15.47 0-28.011-12.536-28.011-28s12.54-28 28.011-28c15.47 0 28.011 12.536 28.011 28s-12.54 28-28.01 28z m85.035 0c-15.47 0-28.012-12.536-28.012-28s12.541-28 28.012-28c15.47 0 28.01 12.536 28.01 28s-12.54 28-28.01 28z"  horiz-adv-x="1024" />
      
      <glyph glyph-name="renshigongyi" unicode="&#58944;" d="M577.828571 138.971429c0 69.485714 54.857143 128 128 128 36.571429 0 69.485714-14.628571 91.428572-40.228572 51.2 51.2 128 51.2 179.2 0s51.2-128 0-179.2c-3.657143-3.657143-7.314286-7.314286-14.628572-10.971428l-142.628571-117.028572c-14.628571-14.628571-40.228571-14.628571-54.857143 0L621.714286 43.885714c-29.257143 21.942857-43.885714 58.514286-43.885715 95.085715zM522.971429 138.971429c0 76.8 43.885714 142.628571 113.371428 171.885714 21.942857 7.314286 43.885714 14.628571 69.485714 14.628571-36.571429 36.571429-80.457143 65.828571-124.342857 87.771429C680.228571 493.714286 702.171429 640 632.685714 749.714286c-18.285714 29.257143-40.228571 51.2-69.485714 69.485714C365.714286 932.571429 160.914286 789.942857 160.914286 603.428571c0-76.8 32.914286-146.285714 91.428571-193.828571C102.4 343.771429 7.314286 197.485714 7.314286 36.571429h544.914285c-18.285714 29.257143-29.257143 65.828571-29.257142 102.4z m-106.057143-73.142858l-95.085715 80.457143 62.171429 190.171429-25.6 43.885714c-3.657143 3.657143 0 10.971429 3.657143 10.971429H464.457143c3.657143 0 10.971429-3.657143 10.971428-7.314286v-3.657143l-25.6-43.885714 62.171429-190.171429-95.085714-80.457143z"  horiz-adv-x="1024" />
      
      <glyph glyph-name="baozhang" unicode="&#59450;" d="M512 853.307077a729.796923 729.796923 0 0 0-384-139.736615v-467.810462c37.809231-170.692923 384-331.067077 384-331.067077s346.269538 160.374154 384 331.067077v467.889231A729.796923 729.796923 0 0 0 512 853.228308z m214.646154-371.003077l-241.742769-241.821538a31.980308 31.980308 0 0 0-45.213539 0L297.353846 382.660923a31.980308 31.980308 0 0 0 45.292308 45.213539l119.650461-119.729231L681.353846 527.675077a31.980308 31.980308 0 0 0 45.292308-45.213539z"  horiz-adv-x="1024" />
      
      <glyph glyph-name="xianlan" unicode="&#61680;" d="M871.8 688.5c0-20-9.3-38.6-28.1-55.6-18.5-17.3-44.1-32.1-76.6-44.8-32.6-12.8-70.6-22.8-114-30.1-43.1-7-89.9-10.8-140-10.8-49.8 0-96.7 3.8-140.5 10.8-43.6 7.2-81.6 17.3-114.2 30-32.6 12.8-58.6 27.6-77.6 44.8-19 17-28.6 35.6-28.6 55.6 0 19.8 9.3 38.6 28.1 55.6 18.5 17 44.3 32.3 76.9 45.6 32.6 13 70.6 23.3 114.2 31.1C415.2 828.2 462 832 512.1 832c50.1 0 96.9-3.8 140.5-11.3 43.6-7.8 81.9-18 114.5-31.1 32.6-13.3 58.1-28.6 76.6-45.6 18.9-17 28.1-35.7 28.1-55.5z m-358.7 58.6c-30.1 0-55.4-5.3-76.1-15.5-20.5-10.5-31.1-22.8-31.1-37.1 0-14.5 10.5-26.6 31.1-36.6 20.8-10 46.1-15 76.1-15 29.6 0 54.9 5 75.9 15 21 10 31.6 22 31.6 36.6 0 14.3-10.5 26.6-31.6 37.1-21 10.2-46.3 15.5-75.9 15.5zM153.4 622.8c22.3-17.5 50.3-33.6 84.7-47.8 29.3-12 66.4-23 111.2-33.1 45.1-10 99.2-14.8 162.8-14.8 64.4 0 119 4.8 164.3 14.8 45.3 10 82.7 21 112 33.1 33.3 14.3 61.1 30.3 83.4 47.8v-35l-3.1 3.9c-21.9-17.2-49.3-33-82.3-47.2-28.9-11.9-66-22.8-111.1-32.8-44.9-9.9-99.1-14.7-163.2-14.7-63.4 0-117.1 4.7-161.7 14.7-44.7 10-81.4 20.9-110.4 32.8-34 14.1-61.6 30-83.5 47.2l-3.4-4.3 0.3 35.4zM790.4 535.3c32.1 13.8 59.3 29.2 81.4 46.1v-24.3l-3.1 3.9c-21.9-17.2-49.3-33-82.3-47.2-28.9-11.9-66-22.8-111.1-32.8-44.9-9.9-99.1-14.7-163.2-14.7-63.4 0-117.1 4.7-161.7 14.7-44.7 10-81.4 20.9-110.4 32.8-34 14.1-61.6 30-83.5 47.2l-3.6-4.6c0.1 8.3 0.1 16.7 0.2 25.2 22.3-17 49.8-32.5 83.1-46.4 29.7-12.2 67-23.3 112-33.3 45.6-10.1 100.1-14.9 163.9-14.9 64.6 0 119.6 4.8 165.4 14.9 45.5 10.1 83.1 21.2 112.9 33.4zM152.9 551.2c-0.1-8.6-0.1-17.1-0.2-25.6l3.8 4.8c21.9-17.2 49.5-33 83.5-47.2 29-11.9 65.7-22.8 110.4-32.8 44.6-9.9 98.3-14.7 161.7-14.7 64.2 0 118.4 4.7 163.2 14.7 45.2 10 82.2 20.9 111.1 32.8 33 14.1 60.4 30 82.3 47.2l3.1-3.9v24.3c-22.2-16.9-49.3-32.3-81.4-46.1-29.7-12.2-67.3-23.3-112.8-33.3-45.8-10.1-100.8-14.9-165.4-14.9-63.8 0-118.3 4.8-163.9 14.9-45 10.1-82.4 21.2-112 33.3-33.5 13.9-61.1 29.5-83.4 46.5zM152.6 494.8c0 8.6 0.1 17.2 0.1 26 22.3-17.2 50-32.8 83.5-46.7 29.7-12.2 67-23.3 112-33.3 45.6-10.1 100.1-14.9 163.9-14.9 64.6 0 119.6 4.8 165.4 14.9 45.5 10.1 83.1 21.2 112.8 33.3 32.1 13.8 59.3 29.2 81.4 46.1v-24.3l-3.1 3.9c-21.9-17.2-49.3-33-82.3-47.2-28.9-11.9-66-22.8-111.1-32.8-44.9-9.9-99.1-14.7-163.2-14.7-63.4 0-117.1 4.7-161.7 14.7-44.7 10-81.4 20.9-110.4 32.8-34 14.1-61.6 30-83.5 47.1l-3.8-4.9zM152.5 490.3c0-8.8-0.1-17.6-0.1-26.3l4.1 5.2c21.9-17.2 49.5-33 83.5-47.2 29-11.9 65.7-22.8 110.4-32.8 44.6-9.9 98.3-14.7 161.7-14.7 64.2 0 118.4 4.7 163.2 14.7 45.2 10 82.2 20.9 111.1 32.8 33 14.1 60.4 30 82.3 47.2l3.1-3.9v24.3c-22.2-16.9-49.3-32.3-81.4-46.1-29.7-12.2-67.3-23.3-112.8-33.3-45.8-10.1-100.8-14.9-165.4-14.9-63.8 0-118.3 4.8-163.9 14.9-45 10.1-82.4 21.2-112 33.3-33.7 13.9-61.4 29.6-83.8 46.8zM152.3 433.3c0 8.8 0.1 17.6 0.1 26.5 22.4-17.2 50.2-33 83.8-46.9 29.7-12.2 67-23.3 112-33.3 45.6-10.1 100.1-14.9 163.9-14.9 64.6 0 119.6 4.8 165.4 14.9 45.5 10.1 83.1 21.2 112.8 33.3 32.1 13.8 59.3 29.2 81.4 46.1v-24.3l-3.1 3.9c-21.9-17.2-49.3-33-82.3-47.2-28.9-11.9-66-22.8-111.1-32.8-44.9-9.9-99.1-14.7-163.2-14.7-63.4 0-117.1 4.7-161.7 14.7-44.7 10-81.4 20.9-110.4 32.8-34 14.1-61.6 30-83.5 47.2l-4.1-5.3zM152.3 429.3c0-9 0-17.9-0.1-26.7l4.3 5.5c21.9-17.2 49.5-33 83.5-47.2 29-11.9 65.7-22.8 110.4-32.8 44.6-9.9 98.3-14.7 161.7-14.7 64.2 0 118.4 4.7 163.2 14.7 45.2 10 82.2 20.9 111.1 32.8 33 14.1 60.4 30 82.3 47.2l3.1-3.9v24.3c-22.2-16.9-49.3-32.3-81.4-46.1-29.7-12.2-67.3-23.3-112.8-33.3-45.9-10.3-100.9-15.1-165.5-15.1-63.8 0-118.3 4.8-163.9 14.9-45 10.1-82.4 21.2-112 33.3-33.7 14.1-61.5 29.8-83.9 47.1zM152.2 371.9v26.8c22.4-17.3 50.3-33.1 84-47.1 29.7-12.2 67-23.3 112-33.3 45.6-10.1 100.1-14.9 163.9-14.9 64.6 0 119.6 4.8 165.4 14.9 45.5 10.1 83.1 21.2 112.8 33.3 32.1 13.8 59.3 29.2 81.4 46.1v-24.3l-3.1 3.9c-21.9-17.2-49.3-33-82.3-47.2-28.9-11.9-66-22.8-111.1-32.8-44.9-9.9-99.1-14.7-163.2-14.7-63.4 0-117.1 4.7-161.7 14.7-44.7 10-81.4 20.9-110.4 32.8-34 14.1-61.6 30-83.5 47.2l-4.2-5.4zM152.2 368.1v-26.8l4.3 5.5c21.9-17.2 49.5-33 83.5-47.2 29-11.9 65.7-22.8 110.4-32.8 44.6-9.9 98.3-14.7 161.7-14.7 64.2 0 118.4 4.7 163.2 14.7 45.2 10 82.2 20.9 111.1 32.8 33 14.1 60.4 30 82.3 47.2l3.1-3.9v24.3c-22.2-16.9-49.3-32.3-81.4-46.1-29.7-12.2-67.3-23.3-112.8-33.3-45.8-10.1-100.8-14.9-165.4-14.9-63.8 0-118.3 4.8-163.9 14.9-45 10.1-82.4 21.2-112 33.3-33.8 14-61.7 29.7-84.1 47zM152.2 310.7v26.8c22.4-17.3 50.3-33.1 84-47.1 29.7-12.2 67-23.3 112-33.3 45.6-10.1 100.1-14.9 163.9-14.9 64.6 0 119.6 4.8 165.4 14.9 45.5 10.1 83.1 21.2 112.8 33.3 32.1 13.8 59.3 29.2 81.4 46.1v-24.3l-3.1 3.9c-21.9-17.2-49.3-33-82.3-47.2-28.9-11.9-66-22.8-111.1-32.8-44.9-9.9-99.1-14.7-163.2-14.7-63.4 0-117.1 4.7-161.7 14.7-44.7 10-81.4 20.9-110.4 32.8-34 14.1-61.6 30-83.5 47.2l-4.2-5.4zM152.2 306.9v-26.8l4.3 5.5c21.9-17.2 49.5-33 83.5-47.2 29-11.9 65.7-22.8 110.4-32.8 44.6-9.9 98.3-14.7 161.7-14.7 64.2 0 118.4 4.7 163.2 14.7 45.2 10 82.2 20.9 111.1 32.8 33 14.1 60.4 30 82.3 47.2l3.1-3.9V306c-22.2-16.9-49.3-32.3-81.4-46.1-29.7-12.2-67.3-23.3-112.8-33.3-45.8-10.1-100.8-14.9-165.4-14.9-63.8 0-118.3 4.8-163.9 14.9-45 10.1-82.4 21.2-112 33.3-33.8 13.9-61.7 29.7-84.1 47zM152.2 249.4v26.8c22.4-17.3 50.3-33.1 84-47.1 29.7-12.2 67-23.3 112-33.3 45.6-10.1 100.1-14.9 163.9-14.9 64.6 0 119.6 4.8 165.4 14.9 45.5 10.1 83.1 21.2 112.8 33.3 32.1 13.8 59.3 29.2 81.4 46.1V251l-3.1 3.9c-21.9-17.2-49.3-33-82.3-47.2-28.9-11.9-66-22.8-111.1-32.8-44.9-9.9-99.1-14.7-163.2-14.7-63.4 0-117.1 4.7-161.7 14.7-44.7 10-81.4 20.9-110.4 32.8-34 14.1-61.6 30-83.5 47.2l-4.2-5.5zM152.2 245.7v-26.8l4.3 5.5c21.9-17.2 49.5-33 83.5-47.2 29-11.9 65.7-22.8 110.4-32.8 44.6-9.9 98.3-14.7 161.7-14.7 64.2 0 118.4 4.7 163.2 14.7 45.2 10 82.2 20.9 111.1 32.8 33 14.1 60.4 30 82.3 47.2l3.1-3.9v24.3c-22.2-16.9-49.3-32.3-81.4-46.1-29.7-12.2-67.3-23.3-112.8-33.3-45.8-10.1-100.8-14.9-165.4-14.9-63.8 0-118.3 4.8-163.9 14.9-45 10.1-82.4 21.2-112 33.3-33.8 13.9-61.7 29.7-84.1 47zM152.2 188.2V215c22.4-17.3 50.3-33.1 84-47.1 29.7-12.2 67-23.3 112-33.3 45.6-10.1 100.1-14.9 163.9-14.9 64.6 0 119.6 4.8 165.4 14.9 45.5 10.1 83.1 21.2 112.8 33.3 32.1 13.8 59.3 29.2 81.4 46.1v-24.3l-3.1 3.9c-21.9-17.2-49.3-33-82.3-47.2-28.9-11.9-66-22.8-111.1-32.8-44.9-9.9-99.1-14.7-163.2-14.7-63.4 0-117.1 4.7-161.7 14.7-44.7 10-81.4 20.9-110.4 32.8-34 14.1-61.6 30-83.5 47.2l-4.2-5.4zM152.2 184.4v-26.8l4.3 5.5c21.9-17.2 49.5-33 83.5-47.2 29-11.9 65.7-22.8 110.4-32.8 44.6-9.9 98.3-14.7 161.7-14.7 64.2 0 118.4 4.7 163.2 14.7 45.2 10 82.2 20.9 111.1 32.8 33 14.1 60.4 30 82.3 47.2l3.1-3.9v24.3c-22.2-16.9-49.3-32.3-81.4-46.1-29.7-12.2-67.3-23.3-112.8-33.3-45.8-10.1-100.8-14.9-165.4-14.9-63.8 0-118.3 4.8-163.9 14.9-45 10.1-82.4 21.2-112 33.3-33.8 14-61.7 29.7-84.1 47zM152.2 127v26.8c22.4-17.3 50.3-33.1 84-47.1 29.7-12.2 67-23.3 112-33.3 45.6-10.1 100.1-14.9 163.9-14.9 64.6 0 119.6 4.8 165.4 14.9 45.5 10.1 83.1 21.2 112.8 33.3 32.1 13.8 59.3 29.2 81.4 46.1v-24.3l-3.1 3.9c-21.9-17.2-49.3-33-82.3-47.2-28.9-11.9-66-22.8-111.1-32.8-44.9-9.9-99.1-14.7-163.2-14.7-63.4 0-117.1 4.7-161.7 14.7-44.7 10-81.4 20.9-110.4 32.8-34 14.1-61.6 30-83.5 47.1l-4.2-5.3zM152.2 123.2v-26.8l4.3 5.5c21.9-17.2 49.5-33 83.5-47.2 29-11.9 65.7-22.8 110.4-32.8 44.6-9.9 98.3-14.7 161.7-14.7 64.2 0 118.4 4.7 163.2 14.7 45.2 10 82.2 20.9 111.1 32.8 33 14.1 60.4 30 82.3 47.2l3.1-3.9v24.3c-22.2-16.9-49.3-32.3-81.4-46.1-29.7-12.2-67.3-23.3-112.8-33.3-45.8-10.1-100.8-14.9-165.4-14.9-63.8 0-118.3 4.8-163.9 14.9-45 10.1-82.4 21.2-112 33.3-33.8 14-61.7 29.7-84.1 47zM152.2 65.8v26.8c22.4-17.3 50.3-33.1 84-47.1 29.7-12.2 67-23.3 112-33.3 45.6-10.1 100.1-14.9 163.9-14.9 64.6 0 119.6 4.8 165.4 14.9 45.5 10.1 83.1 21.2 112.8 33.3 32.1 13.8 59.3 29.2 81.4 46.1v-24.3l-3.1 3.9c-21.9-17.2-49.3-33-82.3-47.2-28.9-11.9-66-22.8-111.1-32.8-44.9-9.9-99.1-14.7-163.2-14.7-63.4 0-117.1 4.7-161.7 14.7-44.7 10-81.4 20.9-110.4 32.8-34 14.1-61.6 30-83.5 47.2l-4.2-5.4zM152.3 61.9c1.2-13.4 9.4-27.2 24.4-41.7 16.3-15.5 40.3-29.3 71.9-41.8 31.8-12.3 71.1-22.5 118-30.6C413.7-60 467.5-64 528.7-64c60.4 0 112.2 4.5 155.6 13.8 43.3 9 78.9 20.5 106.7 34.1 27.8 13.5 48.1 27.6 61.4 42.3 11.3 12.9 17.7 24.4 19.2 34.6-22.1-16.8-49.2-32.2-81.1-45.9-29.7-12.2-67.3-23.3-112.8-33.3-45.8-10.1-100.8-14.9-165.4-14.9-63.8 0-118.3 4.8-163.9 14.9-45 10.1-82.4 21.2-112 33.3-33.9 14-61.7 29.7-84.1 47z"  horiz-adv-x="1024" />
      
      <glyph glyph-name="weixin1" unicode="&#59030;" d="M506.942 550.079c25.259 0 42.134 16.916 42.134 42.107 0 25.477-16.848 41.956-42.134 41.956-25.299 0-50.668-16.48-50.668-41.956 0.028-25.204 25.409-42.107 50.668-42.107v0zM506.942 550.079zM271.257 634.143c-25.259 0-50.79-16.48-50.79-41.956 0-25.19 25.532-42.107 50.79-42.107 25.163 0 42.012 16.916 42.012 42.107-0.014 25.477-16.834 41.956-42.012 41.956v0zM271.257 634.143zM1010.654 280.508c0 133.202-123.563 246.702-275.237 258.512 0.205 1.652 0.301 3.373-0.068 5.092-30.406 141.79-182.886 248.695-354.7 248.695-194.15 0-352.119-135.387-352.119-301.793 0-89.279 45.574-169.725 131.946-233.158l-30.106-90.508c-1.939-5.885-0.177-12.37 4.506-16.452 2.853-2.458 6.445-3.741 10.076-3.741 2.335 0 4.697 0.546 6.867 1.625l113.036 56.565 13.926-2.827c34.802-7.154 64.853-13.353 101.868-13.353 10.895 0 40.878 3.987 43.404 7.182 40.755-101.99 153.094-175.61 285.273-175.61 33.86 0 68.13 8.164 98.891 15.866l87.136-47.636c2.307-1.257 4.847-1.911 7.359-1.911 3.441 0 6.881 1.161 9.639 3.413 4.847 3.932 6.841 10.404 5.038 16.33l-22.255 74.001c74.602 58.955 115.521 129.488 115.521 199.708v0zM409.798 230.25c-9.626-0.833-19.388-1.243-29.082-1.243-32.686 0-60.334 5.652-92.31 12.26l-18.582 3.755c-3.195 0.683-6.567 0.245-9.503-1.269l-81.687-40.892 21.231 63.775c2.076 6.24-0.205 13.053-5.57 16.821-82.070 57.207-123.659 126.894-123.659 207.093 0 144.179 139.087 261.516 310.067 261.516 151.142 0 284.959-91.955 312.579-214.261-158.475-2.076-286.706-113.487-286.706-250.32 0-19.893 3.018-39.171 8.11-57.767-1.542 0.382-3.168 0.683-4.887 0.532v0zM860.371 107.301c-4.875-3.673-6.935-10.007-5.188-15.852l13.804-45.903-56.647 30.993c-2.157 1.188-4.588 1.803-7.004 1.803-1.188 0-2.389-0.15-3.564-0.464-30.379-7.674-61.822-15.593-92.433-15.593-142.186 0-257.857 97.717-257.857 217.811 0 120.095 115.658 217.771 257.857 217.771 139.469 0 257.325-99.724 257.325-217.771 0-59.87-37.738-121.255-106.291-172.797v0zM868.181 98.822zM616.454 389.994c-16.848 0-33.696-16.971-33.696-33.792 0-16.944 16.848-33.669 33.696-33.669 25.313 0 42.038 16.725 42.038 33.669 0 16.848-16.725 33.792-42.038 33.792v0zM616.454 389.994zM801.58 389.994c-16.603 0-33.451-16.971-33.451-33.792 0-16.944 16.848-33.669 33.451-33.669 25.231 0 42.257 16.725 42.257 33.669 0 16.848-16.998 33.792-42.257 33.792v0zM801.58 389.994z"  horiz-adv-x="1024" />
      
      <glyph glyph-name="shiming" unicode="&#58943;" d="M921.6 561.493333c47.786667 160.426667 102.4 204.8 102.4 204.8-419.84 37.546667-617.813333-245.76-655.36-283.306666S249.173333 534.186667 170.666667 581.973333C68.266667 646.826667 37.546667 544.426667 23.893333 541.013333c-13.653333-3.413333-23.893333-30.72-23.893333-30.72s75.093333 64.853333 133.12-143.36c64.853333-238.933333 218.453333-389.12 471.04-372.053333 20.48 3.413333 37.546667 3.413333 51.2 6.826667l-27.306667 40.96 64.853334-34.133334c177.493333 37.546667 235.52 129.706667 235.52 129.706667-286.72-23.893333-296.96 64.853333-296.96 64.853333 201.386667 58.026667 242.346667 201.386667 290.133333 358.4z"  horiz-adv-x="1024" />
      
      <glyph glyph-name="yuanjing" unicode="&#59651;" d="M916.384 821.536c-15.616 8.928-33.44 8.928-40.128 0L62.72 418.112c-15.616 0-24.512-15.584-24.512-33.44 0-15.584 8.896-33.408 15.584-33.408l196.16-120.352c15.584-8.928 33.408-8.928 49.024 8.896l430.176 387.84 15.584-8.928-387.808-410.112c-8.928-8.928-8.928-15.616-8.928-24.512v-178.304c0-15.616 8.96-33.44 24.512-40.128 15.616-8.928 33.44 0 40.128 8.928L510.72 70.4l196.16-129.28c8.896-8.928 15.584-8.928 24.48-8.928h15.616c15.616 8.928 24.512 15.616 24.512 33.44l162.72 809.088c0 24.512 0 40.128-17.824 46.784"  horiz-adv-x="1024" />
      
      <glyph glyph-name="jiazhiguan" unicode="&#58975;" d="M332.24704 518.0416L507.904-49.64352a2.78528 2.78528 0 0 1 5.3248 0l175.7184 567.68512zM369.80736 819.6096h-151.552a100.74112 100.74112 0 0 1-83.968-45.056L14.88896 594.944a10.67008 10.67008 0 0 1 8.86784-16.56832h241.664zM685.4656 578.37568l-104.448 241.23392H440.32l-104.448-241.27488h349.7984zM195.70688 310.64064c0.4096 0.16384 230.56384-282.624 285.24544-349.88032a2.78528 2.78528 0 0 1 4.75136 2.80576L263.61856 518.00064H41.90208a10.6496 10.6496 0 0 1-8.192-17.57184l161.95584-189.8496zM651.264 819.6096l104.5504-241.23392H1000.2432a10.67008 10.67008 0 0 1 8.82688 16.65024L886.784 775.3728a100.74112 100.74112 0 0 1-83.41504 44.2368z m255.1808-416.93184c-0.4096 0.2048 55.7056 65.536 83.456 97.75104a10.67008 10.67008 0 0 1-8.192 17.6128H757.53472L532.5824-38.62528a2.78528 2.78528 0 0 1 4.73088-2.82624L906.4448 402.67776z"  horiz-adv-x="1024" />
      
      <glyph glyph-name="huiyuanzuanshi" unicode="&#59310;" d="M959.4 548.8c-0.7 1.6-1.5 3.1-2.3 4.6L832.9 761.8l-97.2-212.9h223.7v-0.1z m-614.3 0h331.6L510.9 783.5 345.1 548.8zM476.8 794H242.7c-9.2 0-18.9-3.3-27.4-8.7l100.3-219.5L476.8 794z m330.9-6c-7.3 3.8-15.2 6-22.6 6H545l161.3-228.3L807.7 788zM335.6 515l174.8-540.9c0.4-0.1 0.8-0.1 1.2-0.1l174.5 541.1-350.5-0.1zM191.5 756.2L70.7 553.4c-0.9-1.6-1.9-3.1-2.7-4.6h218.1l-94.6 207.4zM63.9 515l1-1.7h1.8c2-2.5 4.8-5.9 8.2-10.1l383.5-478.1L300.1 515H63.9z m896.2 0H721.7L559.6 12l394.1 491.2c2.6 3.6 4.8 7.6 6.4 11.8z"  horiz-adv-x="1024" />
      
      <glyph glyph-name="hao" unicode="&#59133;" d="M296.7 466.6h-81.3c-43.2 0-78.2-35-78.2-78.2v-314.2c0-43.4 35.3-78.5 78.7-78.2l80.8 0.5V466.6zM851 466.6H694.6c-1.4 0-2.8 0.1-4.2 0.4-11.4 2.3-18.7 13.4-16.4 24.8l40.4 196.9c0.9 4.4 1.4 8.9 1.4 13.5 0.2 38.2-30.5 69.3-68.6 69.5l-39.1 0.2c-28.1 0.2-54.5-13.8-70.2-37.1L344.4 466.6V-3l401.4 2.5 39.8 0.2c34.8 0.1 64.7 24.7 71.7 58.7L923 378.2c1 4.9 1.5 9.9 1.5 14.8 0.1 40.7-32.9 73.6-73.5 73.6z"  horiz-adv-x="1024" />
      
      <glyph glyph-name="sms-hot" unicode="&#58908;" d="M451.854 800.019c0.024 0.064 0.048 0.145 0.081 0.145-0.081 0.064-0.097 0-0.081-0.145zM142.588 455.378c-0.015-0.01-0.03-0.021-0.037-0.017 0.006-0.016 0.019-0.006 0.037 0.017z m377.831-189.291c-15.925 0-28.761-5.461-38.505-16.381-9.746-10.92-14.619-27.388-14.619-49.404 0-21.667 5.003-38.092 15.011-49.272 10.005-11.182 22.71-16.772 38.113-16.772 15.401 0 28.04 5.548 37.917 16.643 9.876 11.095 14.814 27.735 14.814 49.926 0 21.927-4.81 38.286-14.423 49.075-9.617 10.789-22.385 16.185-38.308 16.185zM854.456 72.983c5.906 8.442 10.995 17.81 15.102 28.309C987.665 404.304 579.58 847.157 537.014 892.193c0.1-0.165 0.207-0.363 0.298-0.529-2.627 2.792-4.105 4.329-4.105 4.329 6.212-28.647 10.144-55.329 12.242-80.458-0.115 0.867-0.189 1.702-0.307 2.569 2.983-33.158 2.553-63.407-0.651-91.353-0.496-4.229-1-8.467-1.62-12.597-0.098-0.668-0.23-1.33-0.33-1.99-20.503-130.632-104.734-208.479-194.253-289.646-23.411 22.543-37.247 55.049-37.238 102.811 0.083 21.742 2.999 46.622 9.186 75.154l-0.207-0.141c0.074 0.354 0.132 0.685 0.207 1.048 0 0-63.854-41.285-116.968-119.19-0.009 0.008-0.017 0.025-0.017 0.025-0.182-0.264-0.355-0.563-0.545-0.827-3.403-5.022-6.766-10.16-10.053-15.48-0.157-0.239-0.298-0.495-0.447-0.735a430.615 430.615 0 0 1-8.847-15.075 376.645 376.645 0 0 1-1.991-3.569c-2.883-5.253-5.716-10.605-8.434-16.116-0.133-0.272-0.281-0.537-0.414-0.809a407.245 407.245 0 0 1-8.095-17.627c-0.627-1.446-1.223-2.917-1.833-4.371a380.69 380.69 0 0 1-5.89-14.935c-0.528-1.421-1.074-2.808-1.586-4.229-1.09-3.058-2.115-6.163-3.139-9.285-0.025-0.066-0.05-0.132-0.066-0.198-1.049-3.172-2.098-6.345-3.064-9.582-0.396-1.306-0.744-2.66-1.123-3.982a368.612 368.612 0 0 1-4.296-16.331 316.228 316.228 0 0 1-1.338-5.69c-1.537-6.873-2.958-13.812-4.122-20.933 0-0.05-0.017-0.1-0.017-0.148a329.55 329.55 0 0 1-1.727-11.696c-0.032-0.266-0.065-0.529-0.099-0.794a352.944 352.944 0 0 1-1.272-11.283c-0.05-0.43-0.083-0.86-0.124-1.298a391.231 391.231 0 0 1-0.884-11.044c-0.033-0.545-0.066-1.106-0.091-1.651a358.25 358.25 0 0 1-0.504-10.922l-0.05-1.949a366.226 366.226 0 0 1-0.124-10.87v-2.164c0.033-3.618 0.115-7.253 0.256-10.912 0.025-0.769 0.042-1.545 0.083-2.313 0.157-3.659 0.363-7.344 0.62-11.044 0.074-0.793 0.115-1.57 0.173-2.362 0.281-3.733 0.636-7.492 1.024-11.268 0.083-0.784 0.157-1.553 0.248-2.33 0.413-3.849 0.917-7.723 1.454-11.614 0.107-0.734 0.207-1.462 0.306-2.197 0.578-3.989 1.23-8.028 1.933-12.076 0.124-0.645 0.214-1.289 0.338-1.933a392.635 392.635 0 0 1 2.495-12.771c0.099-0.479 0.19-0.958 0.281-1.438a451.803 451.803 0 0 1 3.18-13.745c0.05-0.231 0.1-0.454 0.157-0.677 4.874-19.627 11.234-39.84 19.346-60.657 4.097-10.499 9.186-19.866 15.101-28.309 69.223-121.396 265.021-200.978 265.021-200.978v0.008c-0.676 0.277-56.816 23.185-119.421 62.98 62.605-39.796 118.746-62.702 119.421-62.973l0.033-0.016v0.033c0.041-0.018 0.083-0.033 0.083-0.033 3.709 34.05 18.495 57.277 40.477 73.716-0.017 0.018-0.042 0.018-0.058 0.033 0.124 0.083 0.256 0.166 0.38 0.256 4.436 3.296 9.161 6.32 14.15 9.104 0.264 0.149 0.528 0.29 0.793 0.438 4.998 2.75 10.251 5.261 15.745 7.558 0.165 0.066 0.314 0.141 0.479 0.207 39.089-16.208 66.787-42.806 72.065-91.312 0 0 0.024 0.016 0.033 0.016v-0.016s42.739 17.38 95.334 48.258c-0.066-0.066-0.132-0.141-0.198-0.215 60.06 35.229 133.083 88.122 170.048 152.933zM312.641-56.532z m82.736 161.03h-38.636v83.667h-75.704v-83.667h-38.636V295.846h38.636v-75.313h75.704v75.313h38.636v-191.348zM587.9 127.406c-16.796-17.448-39.245-26.171-67.352-26.171-28.454 0-51.08 8.679-67.872 26.038-16.795 17.361-25.192 41.268-25.192 71.726 0 19.489 2.915 35.847 8.746 49.075 4.35 9.746 10.289 18.491 17.816 26.236 7.526 7.743 15.771 13.486 24.734 17.229 11.92 5.045 25.669 7.57 41.246 7.57 28.192 0 50.751-8.747 67.678-26.235 16.922-17.49 25.386-41.813 25.386-72.965 0.001-30.89-8.398-55.058-25.19-72.503z m41.637 136.071v32.369h152.061v-32.369H724.95v-158.979h-38.635V263.477h-56.778z"  horiz-adv-x="1024" />
      
      <glyph glyph-name="chuangxin" unicode="&#58901;" d="M218.942079 387.30864c0 105.112708 55.889196 202.021497 146.645046 254.321479 90.75585 52.299981 202.534242 52.299981 293.290092 0 90.75585-52.299981 146.645046-149.721515 146.645046-254.321479 0-104.599963-55.889196-202.021497-146.645046-254.321478a293.731052 293.731052 0 0 0-293.290092 0c-90.75585 52.299981-146.645046 149.208771-146.645046 254.321478m348.153798-441.473372c20.509797 0 36.917634-16.407837 36.917634-36.917634s-16.407837-36.917634-36.917634-36.917634H457.368465c-20.509797 0-36.917634 16.407837-36.917634 36.917634s16.407837 36.917634 36.917634 36.917634h109.727412zM512.232171 713.927152c-20.509797 0-36.917634 16.407837-36.917634 36.917634V861.084943c1.02549 20.509797 18.458817 35.892144 38.968614 34.866654 18.458817-1.02549 33.32842-15.895092 34.866654-34.866654v-110.240157c0-19.997052-16.920582-36.404889-36.917634-36.917634M227.658743 617.531108L149.721515 695.468335c-13.331368 15.382347-11.793133 38.968614 3.589215 52.299981 13.844113 12.305878 34.353909 12.305878 48.710767 0l77.937227-77.937227c13.331368-15.382347 11.280388-38.968614-4.101959-52.299981-13.844113-11.793133-34.353909-11.793133-48.198022 0M146.645046 421.66255c20.509797 0 36.917634-16.407837 36.917634-36.917634s-16.407837-36.917634-36.917634-36.917634H36.917634c-20.509797 0-36.917634 16.407837-36.917634 36.917634s16.407837 36.917634 36.917634 36.917634h109.727412z m841.414407 0.512745c20.509797 0 36.917634-16.407837 36.917634-36.917634s-16.407837-36.917634-36.917634-36.917634h-109.727412c-20.509797 0-36.917634 16.407837-36.917634 36.917634s16.407837 36.917634 36.917634 36.917634h109.727412z m-191.253854 195.868558c-14.356858-14.356858-37.943124-14.356858-52.299981 0-14.356858 14.356858-14.356858 37.943124 0 52.299981l77.937227 77.937227c14.356858 14.356858 37.943124 14.356858 52.299981 0 14.356858-14.356858 14.356858-37.943124 0-52.299981l-77.937227-77.937227z m-165.103863-561.455683c20.509797 0 36.917634-16.407837 36.917634-36.917634s-16.407837-36.917634-36.917634-36.917634H392.249861c-20.509797 0-36.917634 16.407837-36.917634 36.917634s16.407837 36.917634 36.917634 36.917634h239.451875z"  horiz-adv-x="1025" />
      
      <glyph glyph-name="icon-mianxing_fuzhi_xiazai" unicode="&#58903;" d="M709.485714 499.809524C694.857143 591.2380949999999 616.838095 660.72381 522.971429 660.72381S349.866667 591.2380949999999 336.457143 499.809524h-9.752381c-99.961905 0-181.638095-81.67619-181.638095-181.638095s81.67619-181.638095 181.638095-181.638096h384c99.961905 0 181.638095 81.67619 181.638095 181.638096s-82.895238 181.638095-182.857143 181.638095zM518.095238 216.99047599999994l-104.838095 104.838095 34.133333 34.133334 46.32381-46.32381v158.476191h48.761904v-158.476191l46.32381 46.32381 34.133333-34.133334-104.838095-104.838095z"  horiz-adv-x="1024" />
      
      <glyph glyph-name="a-mti-jinggaoshi" unicode="&#59670;" d="M1024 20.024889c0-48.184889-34.759111-87.608889-78.791111-90.737778v-0.227555H90.055111v0.227555a62.122667 62.122667 0 0 0-5.632-0.227555c-46.592 0-84.423111 40.732444-84.423111 90.965333 0 15.36 3.527111 29.809778 9.784889 42.496H9.329778c56.206222 100.181333 352.711111 601.486222 422.115555 721.066667 18.545778 30.833778 42.780444 55.637333 77.767111 55.637333 31.232 0 55.239111-18.830222 73.045334-45.511111 0 0 174.023111-287.175111 426.496-721.464889-5.632 8.647111 15.246222-17.180444 15.246222-52.224z m-502.499556 33.109333c26.168889 0 47.388444 23.153778 47.388445 51.655111 0 28.615111-21.219556 51.768889-47.388445 51.768889-26.168889 0-47.388444-23.153778-47.388444-51.768889 0-28.501333 21.219556-51.655111 47.388444-51.655111z m46.136889 433.322667a54.158222 54.158222 0 0 1 1.251556 11.434667c0 1.365333-0.227556 2.616889-0.341333 3.982222l0.341333 6.371555h-0.967111c-4.323556 23.608889-23.495111 41.358222-46.421334 41.358223-22.926222 0-42.040889-17.749333-46.421333-41.358223h-0.967111l0.341333-6.371555c-0.113778-1.365333-0.341333-2.616889-0.341333-3.982222 0-3.925333 0.455111-7.736889 1.251556-11.434667l17.692444-247.125333h1.706667a34.417778 34.417778 0 0 1-1.706667-10.410667c0-17.066667 12.743111-31.004444 28.444444-31.004445s28.444444 13.937778 28.444445 31.004445a32.768 32.768 0 0 1-1.763556 10.410667h1.763556l17.692444 247.125333z"  horiz-adv-x="1024" />
      
      <glyph glyph-name="daishouhuo" unicode="&#59265;" d="M898.9 480c-42 42-97.8 65.1-157.2 65.1h-96.2v124c0 40.6-33.1 73.7-73.7 73.7h-432c-40.6 0-73.7-33.1-73.7-73.7v-512.8c0-40.6 33.1-73.7 73.7-73.7H222c13.3-49.5 58.5-86.1 112.2-86.1s98.9 36.6 112.2 86.1H578c13.3-49.5 58.5-86.1 112.2-86.1s98.9 36.6 112.2 86.1h88c40.6 0 73.7 33.1 73.7 73.7V322.8C964 382.2 940.9 438 898.9 480zM334.1 56.6c-30.9 0-56.1 25.2-56.1 56.1s25.2 56.1 56.1 56.1 56.1-25.2 56.1-56.1-25.1-56.1-56.1-56.1z m356 0c-30.9 0-56.1 25.2-56.1 56.1s25.2 56.1 56.1 56.1 56.1-25.2 56.1-56.1-25.1-56.1-56.1-56.1zM904 156.4c0-7.6-6.1-13.7-13.7-13.7h-88c-13.3 49.5-58.5 86.1-112.2 86.1s-98.9-36.6-112.2-86.1H446.3c-13.3 49.5-58.5 86.1-112.2 86.1s-98.9-36.6-112.2-86.1h-82.3c-7.6 0-13.7 6.1-13.7 13.7V669.2c0 7.6 6.1 13.7 13.7 13.7h432c7.6 0 13.7-6.1 13.7-13.7v-207.9H377.5c-16.6 0-30-13.4-30-30s13.4-30 30-30h237.9c2.1 0 4.1 0.2 6 0.6 13.7 2.8 24 14.9 24 29.4v53.9h96.2c89.5 0 162.4-72.8 162.4-162.4v-166.4zM444.4 543.4c0 16.6-13.4 30-30 30H195.7c-16.6 0-30-13.4-30-30s13.4-30 30-30h218.7c16.6 0 30 13.4 30 30z"  horiz-adv-x="1024" />
      
      <glyph glyph-name="daifahuo" unicode="&#59266;" d="M852.9 730.1H171.1c-48.7 0-88.4-39.7-88.4-88.4v-515.4c0-48.7 39.7-88.4 88.4-88.4H853c48.7 0 88.4 39.7 88.4 88.4V641.7c-0.1 48.8-39.7 88.4-88.5 88.4z m0-60c15.7 0 28.4-12.7 28.4-28.4V485H650.1V670.1h202.8z m-262.8 0V321L512 384.2 433.9 321V670.1h156.2z m-419 0H374V485H142.7V641.7c0 15.7 12.7 28.4 28.4 28.4z m681.8-572.2H171.1c-15.7 0-28.4 12.7-28.4 28.4V425H374v-120.3c0-20.3 11.4-38.4 29.7-47.1 7.3-3.5 14.9-5.2 22.6-5.2 11.7 0 23.2 4 32.8 11.7l53 42.9 53-42.9c15.8-12.8 37-15.3 55.3-6.6 18.3 8.7 29.7 26.8 29.7 47.1V425h231.3v-298.7c-0.1-15.7-12.8-28.4-28.5-28.4z"  horiz-adv-x="1024" />
      
      <glyph glyph-name="yiwancheng" unicode="&#59267;" d="M884 548.7c-20.4 48.3-49.6 91.6-86.8 128.8-37.2 37.2-80.5 66.4-128.8 86.8-50 21.1-103.1 31.9-157.8 31.9-54.7 0-107.8-10.7-157.8-31.9-48.3-20.4-91.6-49.6-128.8-86.8-37.2-37.2-66.4-80.5-86.8-128.8-21.1-50-31.9-103.1-31.9-157.8s10.7-107.8 31.9-157.8c20.4-48.3 49.6-91.6 86.8-128.8s80.5-66.4 128.8-86.8c50-21.1 103.1-31.9 157.8-31.9 54.7 0 107.8 10.7 157.8 31.9 48.3 20.4 91.6 49.6 128.8 86.8 37.2 37.2 66.4 80.5 86.8 128.8 21.1 50 31.9 103.1 31.9 157.8S905.1 498.7 884 548.7z m-373.5-503c-190.4 0-345.3 154.9-345.3 345.3s154.9 345.3 345.3 345.3S855.8 581.4 855.8 391c0-190.5-154.9-345.3-345.3-345.3zM673.5 494.6L495 316.1 382.7 428.4c-11.7 11.7-30.7 11.7-42.4 0s-11.7-30.7 0-42.4L474 252.3c5.9-5.9 13.5-8.8 21.2-8.8s15.4 2.9 21.2 8.8c0.9 0.9 1.7 1.8 2.5 2.8L716 452.2c11.7 11.7 11.7 30.7 0 42.4a30.118 30.118 0 0 1-42.5 0z"  horiz-adv-x="1024" />
      
      <glyph glyph-name="ziyuan" unicode="&#59640;" d="M716.5952 677.2736c37.6832 0 64.1024 15.9744 64.1024 39.1168S754.688 755.5072 716.5952 755.5072 652.288 739.328 652.288 716.3904s26.8288-39.1168 64.3072-39.1168zM894.3616 345.7024a90.3168 90.3168 0 0 1 8.8064 38.2976v6.144a515.2768 515.2768 0 0 0-12.288 267.8784l4.5056 20.48a90.3168 90.3168 0 0 1 8.8064 38.2976C903.168 817.152 731.136 896 511.3856 896S119.808 817.152 119.808 716.3904a93.184 93.184 0 0 1 8.6016-38.2976l4.5056-20.48A515.2768 515.2768 0 0 0 120.832 390.144L119.808 384a93.184 93.184 0 0 1 8.6016-38.2976l4.5056-20.48a514.4576 514.4576 0 0 0-12.0832-267.264v-6.3488C119.808-49.152 291.84-128 511.3856-128s391.7824 78.848 391.7824 179.6096v6.3488a514.4576 514.4576 0 0 0-12.288 267.6736zM160.768 381.1328a556.2368 556.2368 0 0 1 20.48 237.568c68.8128-49.5616 189.6448-81.92 330.1376-81.92s261.3248 32.3584 330.3424 81.92a556.8512 556.8512 0 0 1 20.48-237.7728c-4.096-64.9216-146.8416-135.7824-350.6176-135.7824S165.0688 316.2112 160.768 381.1328zM511.3856 855.04c206.6432 0 350.8224-73.1136 350.8224-138.6496s-143.36-138.6496-350.8224-138.6496S160.768 650.24 160.768 716.3904 304.128 855.04 511.3856 855.04z m0-942.08C307.8144-87.04 165.0688-16.1792 160.768 48.7424a557.2608 557.2608 0 0 1 20.48 237.7728c68.8128-49.7664 189.6448-81.92 330.1376-81.92s261.3248 32.3584 330.3424 81.92a557.056 557.056 0 0 1 20.48-237.7728C857.088-16.1792 715.1616-87.04 511.3856-87.04z"  horiz-adv-x="1024" />
      
      <glyph glyph-name="youxiang" unicode="&#58994;" d="M581.3 699.1c20.5 0 40.6-8 55.3-22.2l1.2-1.3 188.4-188.4c14.5-14.6 22.9-34.2 23.4-54.8v-364.6c0-43.5-35.2-79.5-78.7-80.4H255.2v-0.4c-43.5 0-79.5 35.2-80.4 78.7v553c0 43.5 35.2 79.5 78.7 80.4h327.8z m0.4-50.6H255.2c-15.9 0-29.7-13-30.1-29.3v-551.7c0-15.9 13-29.7 29.3-30.1h515.3c15.9 0 29.7 13 30.1 29.3V430.4c0 7.5-2.9 15.1-8 20.5l-0.8 0.8-188 188c-5.7 5.6-13.3 8.7-21.3 8.8zM474.1 360.9c19.3-18 81.2-80.8 81.2-128.5 0.4-54-44-98.4-98.4-98.4-54.4 0-98.4 44.4-98.4 98.4 0 47.7 62.4 110.5 81.2 128.5 9.7 9.2 24.8 9.2 34.4 0z m-17.2-53.6c-28.9-31-48.6-61.1-48.6-74.5 0-26.8 21.8-48.5 48.6-48.6 26.8 0 48.5 21.7 48.6 48.6 0 13.4-19.7 43.5-48.6 74.5z m91.7 262.5c6 0 11.7-2 16.2-6.1l148.4-148.4c4.6-4.6 7.5-10.9 7.5-17.6 0-6.7-2.5-13-7.5-17.6-4.2-4.6-10.9-7.1-17.2-7.1-5.6 0-11.5 2-16 5.7l-1.6 1.5L531 527.5c-4.7 4.6-7.4 11-7.5 17.6 0 6.7 2.5 13 7.5 17.6 4.7 4.6 11 7.2 17.6 7.1z m-41 207.2c13.9 0 25.1-11.3 25.1-25.1 0-13.2-10.2-24.1-23.4-25.1l-1.7-0.1H300.8c-13.9 0-25.1 11.3-25.1 25.1 0 13.2 10.4 24.2 23.4 25.1l1.7 0.1h206.8z m0 0"  horiz-adv-x="1024" />
      
      <glyph glyph-name="daoru" unicode="&#58941;" d="M563.2 853.333333v-640c0-23.466667-19.2-42.666667-42.666667-42.666666s-42.666667 19.2-42.666666 42.666666V853.333333c0 23.466667 19.2 42.666667 42.666666 42.666667s42.666667-19.2 42.666667-42.666667M806.1952 438.724267L550.5792 183.099733a42.7776 42.7776 0 0 0-60.330667 0c-16.597333 16.605867-16.597333 43.776 0 60.330667l255.616 255.624533a42.7776 42.7776 0 0 0 60.330667 0 42.7776 42.7776 0 0 0 0-60.330666M490.350933 183.1168L234.734933 438.724267a42.7776 42.7776 0 0 0 0 60.330666c16.597333 16.605867 43.776 16.605867 60.330667 0l255.616-255.616a42.7776 42.7776 0 0 0 0-60.330666 42.7776 42.7776 0 0 0-60.330667 0M904.533333-128H136.533333c-70.570667 0-128 57.429333-128 128V256c0 23.594667 19.072 42.666667 42.666667 42.666667s42.666667-19.072 42.666667-42.666667v-256c0-23.552 19.114667-42.666667 42.666666-42.666667h768c23.552 0 42.666667 19.114667 42.666667 42.666667V256c0 23.594667 19.072 42.666667 42.666667 42.666667s42.666667-19.072 42.666666-42.666667v-256c0-70.570667-57.429333-128-128-128"  horiz-adv-x="1032" />
      
      <glyph glyph-name="fenxiang" unicode="&#58942;" d="M953.6 638.72l-116.48-154.88c-6.4-8.96-16.64-14.08-28.16-14.08-19.2 0-34.56 15.36-34.56 34.56 0 7.68 2.56 15.36 6.4 20.48l74.24 97.28c-153.6-8.96-267.52-55.04-341.76-135.68-104.96-115.2-90.88-267.52-90.88-268.8 1.28-19.2-14.08-35.84-33.28-35.84-17.92-1.28-33.28 11.52-35.84 29.44-1.28 6.4-19.2 181.76 107.52 321.28S674.56 679.68 842.24 691.2l8.96 1.28-69.12 80.64c-11.52 15.36-8.96 37.12 6.4 48.64 14.08 11.52 34.56 8.96 46.08-3.84l116.48-135.68c11.52-11.52 11.52-29.44 2.56-43.52zM213.76-61.44C130.56-61.44 64 5.12 64 87.04V680.96c0 81.92 66.56 148.48 149.76 148.48H512c19.2-1.28 33.28-16.64 33.28-35.84-1.28-17.92-15.36-32-33.28-33.28H213.76c-43.52 0-80.64-35.84-80.64-79.36v-593.92c0-43.52 35.84-79.36 80.64-80.64h596.48c44.8 0 80.64 35.84 80.64 79.36V325.12c1.28 19.2 16.64 33.28 35.84 33.28 17.92-1.28 32-15.36 33.28-33.28v-238.08c0-81.92-66.56-148.48-149.76-148.48H213.76z"  horiz-adv-x="1024" />
      
      <glyph glyph-name="fill_icon" unicode="&#58955;" d="M482.579692 743.581538l241.585231-241.624615-276.086154-276.086154-241.624615 241.585231 276.125538 276.125538m-34.500923 34.500924l-276.204307-276.125539a48.679385 48.679385 0 0 1 0-69.001846l241.821538-241.585231a48.679385 48.679385 0 0 1 69.001846 0l276.086154 276.086154a48.758154 48.758154 0 0 1 0 69.001846l-241.545846 241.624616a48.758154 48.758154 0 0 1-69.001846 0z m-276.204307-345.127385l241.821538-241.585231a48.679385 48.679385 0 0 1 69.001846 0l276.086154 276.086154a48.482462 48.482462 0 0 1 14.296615 34.500923H171.874462a48.758154 48.758154 0 0 1 0-69.001846z m69.001846 379.707077a24.418462 24.418462 0 0 1 0-34.500923l224.492307-224.492308a24.418462 24.418462 0 0 1 34.500923 0 24.418462 24.418462 0 0 1 0 34.500923l-224.492307 224.492308a24.418462 24.418462 0 0 1-34.500923 0z m552.408615-344.733539s-89.757538-138.594462-97.634461-195.268923c-13.430154-96.689231 48.797538-108.071385 97.634461-108.071384s107.126154 10.870154 97.634462 108.071384c-5.080615 52.105846-97.595077 195.268923-97.595077 195.268923zM952.556308 128H97.043692a10.436923 10.436923 0 0 1-8.743384-11.500308v-114.884923a10.436923 10.436923 0 0 1 8.743384-11.500307h855.552a10.436923 10.436923 0 0 1 8.743385 11.500307v114.884923a10.436923 10.436923 0 0 1-8.782769 11.500308z"  horiz-adv-x="1024" />
      
      <glyph glyph-name="moju" unicode="&#59264;" d="M599.4 160.5L519 84.6c-3.9-3.7-10-3.7-13.9 0l-80.4 75.9V271.6c0 7.6 6.1 13.7 13.7 13.7h147.4c7.6 0 13.7-6.1 13.7-13.7v-111.1zM886.4 499.4V677.3c0 8.6-7 15.6-15.6 15.6H708.6c-8.6 0-15.6-7-15.6-15.6V515c0-8.6 7-15.6 15.6-15.6h25c8.6 0 15.6-7 15.6-15.6v-199.7c0-8.6-7-15.6-15.6-15.6h-25c-8.6 0-15.6-7-15.6-15.6v-162.2c0-8.6 7-15.6 15.6-15.6h162.2c8.6 0 15.6 7 15.6 15.6V253c0 8.6 7 15.6 15.6 15.6s15.6 7 15.6 15.6V483.8c0 8.6-7 15.6-15.6 15.6h-15.6zM137.6 499.4H122c-8.6 0-15.6-7-15.6-15.6v-199.7c0-8.6 7-15.6 15.6-15.6s15.6-7 15.6-15.6v-162.2c0-8.6 7-15.6 15.6-15.6h162.2c8.6 0 15.6 7 15.6 15.6V253c0 8.6-7 15.6-15.6 15.6h-25c-8.6 0-15.6 7-15.6 15.6V483.8c0 8.6 7 15.6 15.6 15.6h25c8.6 0 15.6 7 15.6 15.6V677.3c0 8.6-7 15.6-15.6 15.6H153.2c-8.6 0-15.6-7-15.6-15.6v-177.9zM574.5 471V591.2c0 7.9-6.4 14.3-14.3 14.3H457.7c-7.9 0-14.3-6.4-14.3-14.3V471s0-0.1-0.1-0.1h-62.6c-10.2 0-18.5-8.3-18.5-18.5v-130c0-9.1 7.4-16.5 16.5-16.5h266.4c9.1 0 16.5 7.4 16.5 16.5v130c0 10.2-8.3 18.5-18.5 18.5l-68.6 0.1z m-87.2-83c0-14.7-12.2-26.6-27-26.1-14.2 0.5-25.2 12.6-25.2 26.8v32c0 14.2 11 26.3 25.2 26.8 14.8 0.5 27-11.4 27-26.1V388z m101.6 0c0-14.7-12.2-26.6-27-26.1-14.2 0.5-25.2 12.6-25.2 26.8v32c0 14.2 11 26.3 25.2 26.8 14.8 0.5 27-11.4 27-26.1V388z"  horiz-adv-x="1024" />
      
      <glyph glyph-name="shouye-yanfaguanli" unicode="&#58935;" d="M850.6 549.9c-13.9-13.7-23.8-13.7-37.7 0l-138 136.3c-13.9 13.7-13.9 23.6 0 37.2l56.5 55.8c13.9 13.7 36.4 13.7 50.2 0l125.5-124c6.7-6.6 10.4-15.5 10.4-24.8s-3.7-18.2-10.4-24.8c0 0.1-56.5-55.7-56.5-55.7z m-44.9-44.4L405 109.8c-7-6.8-18.2-6.8-25.1 0L229.3 258.6c-6.8 6.7-6.9 17.7-0.2 24.5l0.2 0.2L630 679c7 6.8 18.2 6.8 25.1 0l150.6-148.7c6.8-6.9 6.8-18 0-24.8z m-508.6-96.8l-56 54.7 105.1 104.3-27.3 27.1-105.3-104.5-50.6 49.5 105.3 104.7-27.2 27-105.5-105-26.6 26c-7.5 7-11.6 16.8-11.5 27 0 10.6 3.8 19.6 11.5 27.1l133.8 130.8c15.3 15 40 15 55.4 0l187.9-183.6-186.9-182.6c-0.8-0.8-1.3-1.7-2.1-2.5zM132.2 1.3l-14.2-4.8-3.7 3.6 4.8 14 13.1-12.8z m7.8 72.6l52.9-52.2-55.6-18.7-16.3 16.1 19 54.8z m6.4 18.5l57.7 166.2L379.9 85l-168.3-57-65.2 64.4z m580.7 265.9L915 174.7c7.3-7.1 11.5-16.9 11.5-27.1 0-10.2-4.1-19.9-11.5-27.1L781.2-10.2c-7.7-7.6-16.9-11.3-27.7-11.3s-20 3.7-27.6 11.3l-29.5 28.7 97 96.3-27.3 27-97.2-96.5-50.6 49.4 97.2 96.6-27.3 27-97.4-96.8-53.2 52.1c1 0.7 189.5 184.7 189.5 184.7z"  horiz-adv-x="1024" />
      
      <glyph glyph-name="biaobenjianyan" unicode="&#59058;" d="M570.24 864.32l59.648-38.08a22.912 22.912 0 0 0 7.04-31.488l-17.28-27.328 12.224-7.808a22.848 22.848 0 0 0 7.04-31.68l-38.208-59.712a282.624 282.624 0 0 0 160.512-255.808 284.352 284.352 0 0 0-163.2-257.024l63.68 0.064c12.672 0 22.912-10.24 22.912-22.912l-0.064-103.488 127.68-0.064a22.912 22.912 0 1 0 0-45.824H157.44a22.912 22.912 0 1 0 0 45.824h135.68l0.064 103.552c0 12.672 10.24 22.912 22.912 22.912h40.064a284.032 284.032 0 0 0-75.776 52.416 22.784 22.784 0 0 0-6.72 12.544H182.912a22.912 22.912 0 0 0-22.912 22.912V307.84c0 12.608 10.24 22.912 22.912 22.912h216.192c12.672 0 22.912-10.24 22.912-22.912v-64.448c0-12.608-10.24-22.848-22.912-22.848l-62.72-0.128a236.8 236.8 0 0 1 140.864-46.08 238.464 238.464 0 0 1 238.144 238.144c0 94.272-54.4 178.304-139.584 216.896L434.56 408.576a22.912 22.912 0 0 0-31.68-6.976l-19.072 12.288-16.96-25.472a22.912 22.912 0 0 0-31.872-6.208l-54.016 36.736a22.912 22.912 0 0 0-6.208 31.616l15.36 23.168-12.864 8.32a22.912 22.912 0 0 0-6.976 31.616L474.624 833.024A22.912 22.912 0 0 0 506.24 840l13.696-8.768 19.328 27.008A22.912 22.912 0 0 0 570.24 864.32zM638.72 109.696H338.944v-64.256H638.72v64.256zM376.192 284.8H205.824v-18.56h170.368v18.56z m161.792 495.808l-1.792-0.96a23.04 23.04 0 0 0-4.288-1.664l-1.28-0.32a19.968 19.968 0 0 0-3.776-0.448h-0.448a19.84 19.84 0 0 0-3.52 0.192l-1.152 0.192a17.6 17.6 0 0 0-4.48 1.344 17.472 17.472 0 0 0-2.24 1.024l-1.344 0.832-12.8 8.192L321.28 508.16l13.312-8.512 55.04-35.2 0.128-0.064 18.56-11.904L587.904 733.44l-11.52 7.36a22.912 22.912 0 0 0-7.488 31.744l17.216 27.392-22.144 14.08-19.328-27.072-1.6-1.728-0.64-0.96a22.784 22.784 0 0 0-0.192-0.192l2.432 2.88a22.976 22.976 0 0 0-4.8-4.928l-0.896-0.64-0.96-0.64z"  horiz-adv-x="1024" />
      
      <glyph glyph-name="kexueyanjiu" unicode="&#59080;" d="M841.386667-54.328889c51.2 164.522667 20.764444 281.031111-16.327111 351.971556-44.885333 85.902222-108.828444 125.155556-111.502223 126.748444l-35.555555-63.715555c1.991111-1.194667 192.170667-120.092444 88.462222-415.004445h-106.894222c64.512 82.090667 92.387556 160.085333 82.659555 232.561778-13.880889 104.163556-100.408889 153.884444-104.106666 155.932444l-33.848889-64.682666c0.568889-0.341333 59.335111-35.043556 67.925333-102.172445 7.964444-62.577778-29.411556-139.093333-108.032-221.639111H28.444444V-128h914.204445v73.671111h-101.262222z m-505.856 227.555556a73.614222 73.614222 0 0 1 106.837333 0l110.933333 115.427555-50.062222 52.053334-110.933333-115.370667a4.608 4.608 0 0 0-6.712889 0L211.968 405.902222a5.12 5.12 0 0 0 0 6.997334l352.028444 366.023111a4.608 4.608 0 0 0 6.712889 0l173.624889-180.565334a5.12 5.12 0 0 0 0-6.940444L656.497778 500.053333l50.062222-52.053333 87.779556 91.306667a80.896 80.896 0 0 1 0 111.104l-173.624889 180.565333a73.614222 73.614222 0 0 1-106.837334 0L161.905778 464.952889a80.896 80.896 0 0 1 0-111.104l173.624889-180.565333zM257.536 77.824L69.575111 273.180444l50.062222 51.996445 187.960889-195.356445-50.062222-51.996444zM804.636444 713.955556L679.537778 844.003556l50.062222 51.996444 125.041778-130.048-50.005334-51.996444z m-193.820444-437.532445c-76.572444 0-138.808889 64.739556-138.808889 144.327111s62.236444 144.327111 138.808889 144.327111c76.572444 0 138.808889-64.739556 138.808889-144.327111 0-79.644444-62.236444-144.327111-138.808889-144.327111z m0 215.04a70.826667 70.826667 0 1 1 68.096-70.712889 69.518222 69.518222 0 0 1-68.096 70.769778z"  horiz-adv-x="1024" />
      
      <glyph glyph-name="shengchan_shengchanguanli" unicode="&#58948;" d="M296.667429 417.499429c-27.014095 0-48.90819-21.845333-48.908191-48.761905v-114.346667c0-26.965333 21.894095-48.761905 48.908191-48.761905h116.784761c27.014095 0 48.90819 21.796571 48.908191 48.761905v114.346667c0 26.916571-21.942857 48.761905-48.908191 48.761905H296.667429z m9.752381-58.514286h97.231238v-94.841905H306.41981v94.841905zM557.446095 368.737524c0 26.916571 21.894095 48.761905 48.908191 48.761905h116.784762c27.014095 0 48.90819-21.845333 48.90819-48.761905v-114.346667c0-26.965333-21.942857-48.761905-48.90819-48.761905h-116.784762a48.859429 48.859429 0 0 0-48.908191 48.761905v114.346667z m58.709334-104.594286h97.182476v94.841905h-97.182476v-94.841905zM349.671619 739.474286c0 26.86781-21.894095 48.761905-48.90819 48.761904H147.358476c-27.014095 0-48.90819-21.894095-48.90819-48.761904V67.047619c0-26.916571 21.894095-48.761905 48.90819-48.761905h720.554667c27.014095 0 48.90819 21.845333 48.90819 48.761905V706.31619a34.230857 34.230857 0 0 1-52.516571 28.867048l-219.428572-138.142476a4.87619 4.87619 0 0 0-7.558095 4.144762V680.96c0 25.35619-26.819048 41.935238-49.590857 30.524952L356.790857 595.870476a4.87619 4.87619 0 0 0-7.119238 4.388572V739.376762zM853.23581 81.67619H162.03581V724.845714h124.050285v-124.635428c0-50.809905 53.686857-83.772952 99.230476-60.952381l188.464762 94.305524v-32.377905c0-53.784381 59.440762-86.454857 105.033143-57.734095l174.421334 109.811809V81.67619z"  horiz-adv-x="1024" />
      
      <glyph glyph-name="dianchichongdianqi" unicode="&#59258;" d="M659.1 670.3h-10.3v96.5c0 16.6-13.4 30-30 30s-30-13.4-30-30v-96.5H423.1v96.5c0 16.6-13.4 30-30 30s-30-13.4-30-30v-96.5h-10.3c-67.4 0-122.2-54.8-122.2-122.2v-383.5c0-67.4 54.8-122.2 122.2-122.2H476v-78.7c0-16.6 13.4-30 30-30s30 13.4 30 30v78.7h123.2c67.4 0 122.2 54.8 122.2 122.2V548.1c0 67.3-54.9 122.2-122.3 122.2z m62.3-505.8c0-34.3-27.9-62.2-62.2-62.2H352.7c-34.3 0-62.2 27.9-62.2 62.2V548.1c0 34.3 27.9 62.2 62.2 62.2h306.4c34.3 0 62.2-27.9 62.2-62.2v-383.6zM592.9 363.6h-58.4c-4.8 0-8.5 4.2-7.9 9l11.9 92.8c1 7.5-8 12-13.4 6.7L413.5 362.7c-5.1-5-1.5-13.6 5.6-13.6h58.4c4.8 0 8.5-4.2 7.9-9l-11.9-92.8c-1-7.5 8-11.9 13.4-6.7l111.6 109.3c5 5 1.5 13.7-5.6 13.7z"  horiz-adv-x="1024" />
      
      <glyph glyph-name="dianluban" unicode="&#59259;" d="M814.7 76H209.3c-53.3 0-96.6 43.3-96.6 96.6V595.4c0 53.3 43.3 96.6 96.6 96.6h605.3c53.3 0 96.6-43.3 96.6-96.6v-422.7c0.1-53.3-43.3-96.7-96.5-96.7zM209.3 632c-20.2 0-36.6-16.4-36.6-36.6v-422.7c0-20.2 16.4-36.6 36.6-36.6h605.3c20.2 0 36.6 16.4 36.6 36.6V595.4c0 20.2-16.4 36.6-36.6 36.6H209.3zM669.5 412.2H361.6l-150.8 93.4c-14.1 8.7-18.4 27.2-9.7 41.3 8.7 14.1 27.2 18.4 41.3 9.7l136.3-84.4h290.9c16.6 0 30-13.4 30-30s-13.5-30-30.1-30zM801.3 190c-5.4 0-10.8 1.5-15.8 4.5l-136.3 84.4H358.4c-16.6 0-30 13.4-30 30s13.4 30 30 30h307.9l150.8-93.4c14.1-8.7 18.4-27.2 9.7-41.3-5.7-9.2-15.5-14.2-25.5-14.2z"  horiz-adv-x="1024" />
      
      <glyph glyph-name="ledshipeiqi" unicode="&#59261;" d="M746.4 126.4h-13.7c-16.6 0-30 13.4-30 30s13.4 30 30 30h13.7c55.8 0 101.2 45.4 101.2 101.2V585.7c0 55.8-45.4 101.2-101.2 101.2H261.9c-55.8 0-101.2-45.4-101.2-101.2v-298.1c0-55.8 45.4-101.2 101.2-101.2h12.4c16.6 0 30-13.4 30-30s-13.4-30-30-30h-12.4c-88.9 0-161.2 72.3-161.2 161.2V585.7c0 88.9 72.3 161.2 161.2 161.2h484.5c88.9 0 161.2-72.3 161.2-161.2v-298.1c0-88.9-72.3-161.2-161.2-161.2zM621.8-6.2H386.6c-25.1 0-47.4 14-58.3 36.6-10.9 22.6-8 48.8 7.5 68.5l117.6 148.5c12.4 15.6 30.9 24.6 50.8 24.6s38.4-9 50.8-24.6l117.6-148.5c15.6-19.7 18.5-45.9 7.5-68.5-10.9-22.6-33.2-36.6-58.3-36.6zM500.4 210L382.8 61.6c-0.5-0.6-1.9-2.4-0.6-5.1s3.6-2.7 4.3-2.7h235.2c0.7 0 3 0 4.3 2.7s-0.1 4.5-0.6 5.1L507.9 210c-1 1.2-2.2 1.8-3.8 1.8-1.5 0.1-2.7-0.6-3.7-1.8z"  horiz-adv-x="1024" />
      
      </font>
</defs>
</svg>
